<?xml version="1.0" standalone="no"?>
<!DOCTYPE svg PUBLIC "-//W3C//DTD SVG 1.1//EN" "http://www.w3.org/Graphics/SVG/1.1/DTD/svg11.dtd" >
<svg xmlns="http://www.w3.org/2000/svg">
<metadata>Generated by IcoMoon</metadata>
<defs>
<font id="miu-icon-font" horiz-adv-x="1024">
<font-face units-per-em="1024" ascent="960" descent="-64" />
<missing-glyph horiz-adv-x="1024" />
<glyph unicode="&#x20;" d="" horiz-adv-x="512" />
<glyph unicode="&#xe600;" d="M1024 458.105c0 282.77-229.23 512-512 512s-512-229.23-512-512c0-282.77 229.23-512 512-512s512 229.23 512 512zM536.433 682.105v-44.213c15.134-2.857 27.511-8.722 37.13-17.595s18.79-22.483 27.511-40.83l-37.515-24.588c-11.287 24.062-26.036 36.093-44.248 36.093-11.287 0-20.649-3.91-28.088-11.73s-11.158-17.595-11.158-29.325c0-10.677 3.014-19.55 9.042-26.618 5.9-6.918 17.828-15.114 35.784-24.588 15.519-8.271 28.345-16.054 38.477-23.347s17.764-14.324 22.894-21.092c14.493-18.347 21.739-40.529 21.739-66.546 0-25.566-6.541-48.123-19.623-67.674-12.954-19.4-30.268-32.483-51.944-39.251v-46.695h-33.667v45.341c-25.138 4.812-44.313 14.963-57.523 30.453s-22.958 39.401-29.242 71.734l42.325 10.377c5.772-22.859 12.826-39.176 21.162-48.951 8.721-9.324 20.329-13.986 34.822-13.986 14.108 0 25.908 5.339 35.399 16.016 9.363 10.527 14.044 24.137 14.044 40.83 0 14.888-3.912 26.844-11.735 35.867-3.976 4.361-9.844 9.286-17.603 14.775s-17.667 11.467-29.723 17.934c-24.882 13.084-41.234 25.114-49.058 36.093-12.441 16.392-18.661 36.017-18.661 58.876 0 10.828 1.475 20.904 4.425 30.228s7.214 17.783 12.794 25.378c5.579 7.595 12.473 14.174 20.681 19.738s17.507 9.925 27.896 13.084v44.213h33.667z" />
<glyph unicode="&#xe601;" d="M1024 458.105c0 282.77-229.23 512-512 512s-512-229.23-512-512c0-282.77 229.23-512 512-512s512 229.23 512 512zM64 458.105c0 247.424 200.576 448 448 448s448-200.576 448-448c0-247.424-200.576-448-448-448s-448 200.576-448 448zM536.433 682.105v-44.213c15.134-2.857 27.511-8.722 37.13-17.595s18.79-22.483 27.511-40.83l-37.515-24.588c-11.287 24.062-26.036 36.093-44.248 36.093-11.287 0-20.649-3.91-28.088-11.73s-11.158-17.595-11.158-29.325c0-10.677 3.014-19.55 9.042-26.618 5.9-6.918 17.828-15.114 35.784-24.588 15.519-8.271 28.345-16.054 38.477-23.347s17.764-14.324 22.894-21.092c14.493-18.347 21.739-40.529 21.739-66.546 0-25.566-6.541-48.123-19.623-67.674-12.954-19.4-30.268-32.483-51.944-39.251v-46.695h-33.667v45.341c-25.138 4.812-44.313 14.963-57.523 30.453s-22.958 39.401-29.242 71.734l42.325 10.377c5.772-22.859 12.826-39.176 21.162-48.951 8.721-9.324 20.329-13.986 34.822-13.986 14.108 0 25.908 5.339 35.399 16.016 9.363 10.527 14.044 24.137 14.044 40.83 0 14.888-3.912 26.844-11.735 35.867-3.976 4.361-9.844 9.286-17.603 14.775s-17.667 11.467-29.723 17.934c-24.882 13.084-41.234 25.114-49.058 36.093-12.441 16.392-18.661 36.017-18.661 58.876 0 10.828 1.475 20.904 4.425 30.228s7.214 17.783 12.794 25.378c5.579 7.595 12.473 14.174 20.681 19.738s17.507 9.925 27.896 13.084v44.213h33.667z" />
<glyph unicode="&#xe602;" d="M4.937 380.036c28.291-168.417 174.779-296.738 351.237-296.738s322.946 128.321 351.237 296.738c-68.176-123.808-199.91-207.695-351.237-207.695s-283.061 83.887-351.237 207.695v0zM4.937 246.471c28.291-168.417 174.779-296.738 351.237-296.738s322.946 128.321 351.237 296.738c-68.176-123.808-199.91-207.695-351.237-207.695s-283.061 83.887-351.237 207.695v0zM712.348 573.037c0 196.709-159.464 356.174-356.174 356.174s-356.174-159.464-356.174-356.174c0-196.709 159.464-356.174 356.174-356.174s356.174 159.464 356.174 356.174zM373.171 728.863v-30.757c10.528-1.988 19.138-6.068 25.83-12.24s13.071-15.64 19.138-28.403l-26.097-17.105c-7.852 16.739-18.112 25.108-30.782 25.108-7.852 0-14.365-2.72-19.54-8.16s-7.762-12.24-7.762-20.4c0-7.428 2.097-13.6 6.29-18.517 4.104-4.812 12.402-10.514 24.893-17.105 10.796-5.754 19.718-11.168 26.767-16.242s12.357-9.965 15.926-14.672c10.082-12.763 15.123-28.194 15.123-46.293 0-17.785-4.55-33.477-13.651-47.077-9.011-13.496-21.056-22.597-36.135-27.305v-32.483h-23.421v31.542c-17.488 3.348-30.826 10.409-40.016 21.185s-15.971 27.409-20.343 49.902l29.443 7.219c4.015-15.902 8.922-27.253 14.722-34.053 6.067-6.486 14.142-9.729 24.224-9.729 9.814 0 18.023 3.714 24.625 11.142 6.513 7.323 9.77 16.791 9.77 28.403 0 10.357-2.721 18.674-8.164 24.951-2.766 3.034-6.848 6.46-12.246 10.279s-12.29 7.977-20.677 12.476c-17.309 9.102-28.685 17.471-34.127 25.108-8.655 11.403-12.982 25.056-12.982 40.957 0 7.532 1.026 14.542 3.078 21.028s5.019 12.371 8.9 17.654c3.881 5.283 8.677 9.86 14.387 13.731s12.179 6.905 19.406 9.102v30.757h23.421z" horiz-adv-x="712" />
<glyph unicode="&#xe603;" d="M5.161 395.968c29.577-176.073 182.723-310.226 367.202-310.226s337.625 134.154 367.202 310.226c-24.353-44.224-56.462-83.576-94.495-116.223-58.199-88.803-158.603-147.458-272.707-147.458s-214.509 58.655-272.707 147.458c-38.033 32.647-70.142 71.999-94.495 116.223v0zM5.161 256.331c29.577-176.073 182.723-310.226 367.202-310.226s337.625 134.154 367.202 310.226c-24.353-44.224-56.462-83.576-94.495-116.223-58.199-88.803-158.603-147.458-272.707-147.458s-214.509 58.655-272.707 147.458c-38.033 32.647-70.142 71.999-94.495 116.223v0zM744.727 597.741c0 205.651-166.713 372.364-372.364 372.364s-372.364-166.713-372.364-372.364c0-205.651 166.713-372.364 372.364-372.364s372.364 166.713 372.364 372.364zM46.545 597.741c0 179.944 145.874 325.818 325.818 325.818s325.818-145.874 325.818-325.818c0-179.944-145.874-325.818-325.818-325.818s-325.818 145.874-325.818 325.818zM390.133 760.65v-32.155c11.007-2.078 20.008-6.344 27.004-12.796s13.665-16.351 20.008-29.694l-27.284-17.882c-8.208 17.5-18.935 26.249-32.181 26.249-8.208 0-15.018-2.844-20.428-8.531s-8.115-12.796-8.115-21.327c0-7.765 2.192-14.218 6.576-19.359 4.291-5.031 12.966-10.992 26.024-17.882 11.287-6.015 20.614-11.675 27.983-16.98s12.919-10.418 16.65-15.339c10.54-13.343 15.811-29.476 15.811-48.397 0-18.593-4.757-34.999-14.271-49.217-9.421-14.109-22.013-23.624-37.777-28.546v-33.96h-24.485v32.976c-18.282 3.5-32.227 10.882-41.835 22.148s-16.697 28.655-21.267 52.17l30.782 7.547c4.198-16.625 9.328-28.491 15.391-35.6 6.343-6.781 14.784-10.172 25.325-10.172 10.261 0 18.842 3.883 25.745 11.648 6.809 7.656 10.214 17.554 10.214 29.694 0 10.828-2.845 19.523-8.535 26.085-2.892 3.172-7.159 6.754-12.802 10.746s-12.849 8.34-21.617 13.043c-18.096 9.515-29.989 18.265-35.679 26.249-9.048 11.922-13.572 26.194-13.572 42.819 0 7.875 1.073 15.203 3.218 21.984s5.247 12.933 9.304 18.456c4.058 5.523 9.071 10.308 15.041 14.355s12.732 7.219 20.288 9.515v32.155h24.485z" horiz-adv-x="745" />
<glyph unicode="&#xe604;" d="M0 970.105v-1024h2048v1024h-2048zM1043.809 760.423v-61.991c24.881-4.006 45.228-12.23 61.042-24.67s30.89-31.523 45.228-57.247l-61.675-34.475c-18.555 33.737-42.803 50.605-72.745 50.605-18.555 0-33.948-5.482-46.177-16.447s-18.344-24.67-18.344-41.117c0-14.971 4.955-27.411 14.865-37.321 9.699-9.699 29.309-21.191 58.828-34.475 25.514-11.597 46.599-22.509 63.256-32.735s29.203-20.084 37.638-29.572c23.827-25.724 35.74-56.825 35.74-93.303 0-35.845-10.753-67.473-32.261-94.885-21.296-27.2-49.762-45.545-85.396-55.033v-65.47h-55.349v63.573c-41.328 6.747-72.85 20.98-94.568 42.698s-37.743 55.244-48.075 100.578l69.582 14.549c9.489-32.050 21.085-54.928 34.791-68.633 14.338-13.073 33.42-19.609 57.247-19.609 23.194 0 42.593 7.485 58.196 22.456 15.392 14.76 23.089 33.842 23.089 57.247 0 20.875-6.431 37.638-19.293 50.289-6.537 6.115-16.183 13.020-28.94 20.716s-29.045 16.078-48.866 25.144c-40.906 18.344-67.79 35.213-80.652 50.605-20.453 22.983-30.679 50.5-30.679 82.55 0 15.182 2.425 29.309 7.274 42.382s11.861 24.934 21.033 35.582c9.172 10.648 20.506 19.873 34 27.675s28.782 13.916 45.861 18.344v61.991h55.349z" horiz-adv-x="2048" />
<glyph unicode="&#xe605;" d="M0 970.105h2048v-1024h-2048v1024zM93.091 877.014v-837.818h1861.818v837.818h-1861.818zM1043.809 760.423v-61.991c24.881-4.006 45.228-12.23 61.042-24.67s30.89-31.523 45.228-57.247l-61.675-34.475c-18.555 33.737-42.803 50.605-72.745 50.605-18.555 0-33.948-5.482-46.177-16.447s-18.344-24.67-18.344-41.117c0-14.971 4.955-27.411 14.865-37.321 9.699-9.699 29.309-21.191 58.828-34.475 25.514-11.597 46.599-22.509 63.256-32.735s29.203-20.084 37.638-29.572c23.827-25.724 35.74-56.825 35.74-93.303 0-35.845-10.753-67.473-32.261-94.885-21.296-27.2-49.762-45.545-85.396-55.033v-65.47h-55.349v63.573c-41.328 6.747-72.85 20.98-94.568 42.698s-37.743 55.244-48.075 100.578l69.582 14.549c9.489-32.050 21.085-54.928 34.791-68.633 14.338-13.073 33.42-19.609 57.247-19.609 23.194 0 42.593 7.485 58.196 22.456 15.392 14.76 23.089 33.842 23.089 57.247 0 20.875-6.431 37.638-19.293 50.289-6.537 6.115-16.183 13.020-28.94 20.716s-29.045 16.078-48.866 25.144c-40.906 18.344-67.79 35.213-80.652 50.605-20.453 22.983-30.679 50.5-30.679 82.55 0 15.182 2.425 29.309 7.274 42.382s11.861 24.934 21.033 35.582c9.172 10.648 20.506 19.873 34 27.675s28.782 13.916 45.861 18.344v61.991h55.349z" horiz-adv-x="2048" />
<glyph unicode="&#xe606;" d="M0 970.105h1501.867v-1024h-1501.867v1024zM614.4 697.038v-136.533h477.867v136.533h-477.867zM614.4 423.972v-68.267h682.667v68.267h-682.667zM614.4 287.438v-68.267h614.4v68.267h-614.4zM204.8 697.038v-477.867h273.067v477.867h-273.067z" horiz-adv-x="1502" />
<glyph unicode="&#xe607;" d="M0 970.105h1501.867v-1024h-1501.867v1024zM68.267 901.838v-887.467h1365.333v887.467h-1365.333zM614.4 697.038v-136.533h477.867v136.533h-477.867zM614.4 423.972v-68.267h682.667v68.267h-682.667zM614.4 287.438v-68.267h614.4v68.267h-614.4zM204.8 697.038v-477.867h273.067v477.867h-273.067z" horiz-adv-x="1502" />
<glyph unicode="&#xe608;" d="M0 697.038v-750.933h1501.867v750.933h-1501.867zM68.267 833.572v-68.267h1365.333v68.267h-1365.333zM136.533 970.105v-68.267h1228.8v68.267h-1228.8zM759.595 560.505v-45.46c18.246-2.938 33.167-8.968 44.764-18.091s22.653-23.117 33.167-41.981l-45.228-25.281c-13.607 24.74-31.389 37.11-53.346 37.11-13.607 0-24.895-4.020-33.863-12.061s-13.453-18.091-13.453-30.152c0-10.979 3.634-20.101 10.901-27.369 7.113-7.113 21.493-15.54 43.141-25.281 18.71-8.505 34.172-16.506 46.388-24.006s21.416-14.728 27.601-21.686c17.473-18.865 26.209-41.672 26.209-68.422 0-26.287-7.886-49.48-23.658-69.582-15.617-19.947-36.492-33.399-62.624-40.358v-48.012h-40.59v46.62c-30.307 4.948-53.423 15.385-69.35 31.312s-27.678 40.512-35.255 73.757l51.027 10.669c6.958-23.503 15.463-40.28 25.513-50.331 10.515-9.587 24.508-14.38 41.981-14.38 17.009 0 31.235 5.489 42.677 16.468 11.288 10.824 16.932 24.818 16.932 41.981 0 15.308-4.716 27.601-14.148 36.878-4.793 4.484-11.868 9.548-21.223 15.192s-21.3 11.79-35.835 18.439c-29.998 13.453-49.712 25.823-59.145 37.11-14.999 16.854-22.498 37.033-22.498 60.536 0 11.133 1.778 21.493 5.335 31.080s8.698 18.285 15.424 26.093c6.726 7.809 15.037 14.574 24.934 20.295s21.107 10.205 33.631 13.453v45.46h40.59z" horiz-adv-x="1502" />
<glyph unicode="&#xe609;" d="M0 697.038h1501.867v-750.933h-1501.867v750.933zM68.267 833.572v-68.267h1365.333v68.267h-1365.333zM136.533 970.105v-68.267h1228.8v68.267h-1228.8zM68.267 628.772v-614.4h1365.333v614.4h-1365.333zM759.595 560.505v-45.46c18.246-2.938 33.167-8.968 44.764-18.091s22.653-23.117 33.167-41.981l-45.228-25.281c-13.607 24.74-31.389 37.11-53.346 37.11-13.607 0-24.895-4.020-33.863-12.061s-13.453-18.091-13.453-30.152c0-10.979 3.634-20.101 10.901-27.369 7.113-7.113 21.493-15.54 43.141-25.281 18.71-8.505 34.172-16.506 46.388-24.006s21.416-14.728 27.601-21.686c17.473-18.865 26.209-41.672 26.209-68.422 0-26.287-7.886-49.48-23.658-69.582-15.617-19.947-36.492-33.399-62.624-40.358v-48.012h-40.59v46.62c-30.307 4.948-53.423 15.385-69.35 31.312s-27.678 40.512-35.255 73.757l51.027 10.669c6.958-23.503 15.463-40.28 25.513-50.331 10.515-9.587 24.508-14.38 41.981-14.38 17.009 0 31.235 5.489 42.677 16.468 11.288 10.824 16.932 24.818 16.932 41.981 0 15.308-4.716 27.601-14.148 36.878-4.793 4.484-11.868 9.548-21.223 15.192s-21.3 11.79-35.835 18.439c-29.998 13.453-49.712 25.823-59.145 37.11-14.999 16.854-22.498 37.033-22.498 60.536 0 11.133 1.778 21.493 5.335 31.080s8.698 18.285 15.424 26.093c6.726 7.809 15.037 14.574 24.934 20.295s21.107 10.205 33.631 13.453v45.46h40.59z" horiz-adv-x="1502" />
<glyph unicode="&#xe60a;" d="M700.632 485.052h485.053v-479.064c0-59.883-59.284-59.883-59.284-59.883h-1067.116c0 0-59.284 0-59.284 59.883v479.064h485.053v-53.39c0-30.044 23.894-54.4 54.4-54.4h106.78c30.044 0 54.4 23.894 54.4 54.4v53.39zM700.629 538.947h485.055v208.23c0 61.244-59.284 61.244-59.284 61.244h-1067.116c0 0-59.284 0-59.284-61.244v-208.23h485.055c0.267 30.264 24.519 53.895 54.397 53.895h106.78c30.334 0 54.131-24.083 54.397-53.895v0zM703.566 917.329h-217.921v-108.908h-54.487v94.316c0 67.368 62.186 67.368 62.186 67.368h198.996c0 0 62.186 0 62.186-67.368v-94.316h-50.961v108.908zM538.947 538.947v-107.789h107.789v107.789h-107.789z" horiz-adv-x="1186" />
<glyph unicode="&#xe60b;" d="M755.941 431.973v53.079h429.743v-479.064c0-59.883-59.284-59.883-59.284-59.883h-1067.116c0 0-59.284 0-59.284 59.883v479.064h431.441v-53.079h-379.184v-435.612h1082.566v435.612h-378.882zM1131.789 754.526v-215.579h53.895v208.23c0 61.244-59.284 61.244-59.284 61.244h-1067.116c0 0-59.284 0-59.284-61.244v-208.23h53.895v215.579h1077.895zM703.566 917.329v-108.908h50.961v94.316c0 67.368-62.186 67.368-62.186 67.368h-198.996c0 0-62.186 0-62.186-67.368v-94.316h54.487v108.908h217.921zM485.053 431.663v106.78c0 30.505 24.356 54.4 54.4 54.4h106.78c30.505 0 54.4-24.356 54.4-54.4v-106.78c0-30.505-24.356-54.4-54.4-54.4h-106.78c-30.505 0-54.4 24.356-54.4 54.4zM538.947 538.947v-107.789h107.789v107.789h-107.789z" horiz-adv-x="1186" />
<glyph unicode="&#xe60c;" d="M0.536 458.105c7.681-451.765 59.699-451.765 59.699-451.765h60.235v903.529h-60.235c0 0-67.381 0-59.699-451.765zM1325.176 458.105c0-451.765-75.326-451.765-75.326-451.765h-647.498v903.529h647.498c0 0 75.326 0 75.326-451.765zM1084.235 126.811c33.267 0 60.235 26.968 60.235 60.235s-26.968 60.235-60.235 60.235c-33.267 0-60.235-26.968-60.235-60.235s26.968-60.235 60.235-60.235zM903.529 126.811c33.267 0 60.235 26.968 60.235 60.235s-26.968 60.235-60.235 60.235c-33.267 0-60.235-26.968-60.235-60.235s26.968-60.235 60.235-60.235zM722.824 126.811c33.267 0 60.235 26.968 60.235 60.235s-26.968 60.235-60.235 60.235c-33.267 0-60.235-26.968-60.235-60.235s26.968-60.235 60.235-60.235zM1084.235 307.517c33.267 0 60.235 26.968 60.235 60.235s-26.968 60.235-60.235 60.235c-33.267 0-60.235-26.968-60.235-60.235s26.968-60.235 60.235-60.235zM903.529 307.517c33.267 0 60.235 26.968 60.235 60.235s-26.968 60.235-60.235 60.235c-33.267 0-60.235-26.968-60.235-60.235s26.968-60.235 60.235-60.235zM722.824 307.517c33.267 0 60.235 26.968 60.235 60.235s-26.968 60.235-60.235 60.235c-33.267 0-60.235-26.968-60.235-60.235s26.968-60.235 60.235-60.235zM1144.471 548.458c0 33.267-26.968 60.235-60.235 60.235s-60.235-26.968-60.235-60.235c0-33.267 26.968-60.235 60.235-60.235s60.235 26.968 60.235 60.235zM903.529 488.223c33.267 0 60.235 26.968 60.235 60.235s-26.968 60.235-60.235 60.235c-33.267 0-60.235-26.968-60.235-60.235s26.968-60.235 60.235-60.235zM722.824 488.223c33.267 0 60.235 26.968 60.235 60.235s-26.968 60.235-60.235 60.235c-33.267 0-60.235-26.968-60.235-60.235s26.968-60.235 60.235-60.235zM672.653 789.399c-5.559 0-10.065-4.147-10.065-9.253v-101.964c0-5.11 4.463-9.253 10.065-9.253h461.753c5.559 0 10.065 4.147 10.065 9.253v101.964c0 5.11-4.463 9.253-10.065 9.253h-461.753zM279.917 970.105c0 0-99.211 0-99.211-82.852v-858.296c0-82.852 99.211-82.852 99.211-82.852h162.99c0 0 99.211 0 99.211 82.852v858.296c0 82.852-99.211 82.852-99.211 82.852h-162.99z" horiz-adv-x="1325" />
<glyph unicode="&#xe60d;" d="M0.536 458.105c-7.681 451.765 59.699 451.765 59.699 451.765h60.235v-60.235h-24.094c0 0-36.142 18.694-36.142-391.529s36.142-391.529 36.142-391.529h24.094v-60.235h-60.235c0 0-52.018 0-59.699 451.765zM1325.176 458.105c0 451.765-75.326 451.765-75.326 451.765h-647.498v-60.235h615.555c0 0 48.489 0 48.489-391.529s-48.489-391.529-48.489-391.529h-615.555v-60.235h647.498c0 0 75.326 0 75.326 451.765zM1084.235 126.811c-33.267 0-60.235 26.968-60.235 60.235s26.968 60.235 60.235 60.235c33.267 0 60.235-26.968 60.235-60.235s-26.968-60.235-60.235-60.235zM903.529 126.811c-33.267 0-60.235 26.968-60.235 60.235s26.968 60.235 60.235 60.235c33.267 0 60.235-26.968 60.235-60.235s-26.968-60.235-60.235-60.235zM722.824 126.811c-33.267 0-60.235 26.968-60.235 60.235s26.968 60.235 60.235 60.235c33.267 0 60.235-26.968 60.235-60.235s-26.968-60.235-60.235-60.235zM1084.235 307.517c-33.267 0-60.235 26.968-60.235 60.235s26.968 60.235 60.235 60.235c33.267 0 60.235-26.968 60.235-60.235s-26.968-60.235-60.235-60.235zM903.529 307.517c-33.267 0-60.235 26.968-60.235 60.235s26.968 60.235 60.235 60.235c33.267 0 60.235-26.968 60.235-60.235s-26.968-60.235-60.235-60.235zM722.824 307.517c-33.267 0-60.235 26.968-60.235 60.235s26.968 60.235 60.235 60.235c33.267 0 60.235-26.968 60.235-60.235s-26.968-60.235-60.235-60.235zM1144.471 548.458c0-33.267-26.968-60.235-60.235-60.235s-60.235 26.968-60.235 60.235c0 33.267 26.968 60.235 60.235 60.235s60.235-26.968 60.235-60.235zM903.529 488.223c-33.267 0-60.235 26.968-60.235 60.235s26.968 60.235 60.235 60.235c33.267 0 60.235-26.968 60.235-60.235s-26.968-60.235-60.235-60.235zM722.824 488.223c-33.267 0-60.235 26.968-60.235 60.235s26.968 60.235 60.235 60.235c33.267 0 60.235-26.968 60.235-60.235s-26.968-60.235-60.235-60.235zM672.653 789.399h461.753c5.602 0 10.065-4.143 10.065-9.253v-101.964c0-5.106-4.506-9.253-10.065-9.253h-461.753c-5.602 0-10.065 4.143-10.065 9.253v101.964c0 5.106 4.506 9.253 10.065 9.253zM279.917 970.105h162.99c0 0 99.211 0 99.211-82.852v-858.296c0-82.852-99.211-82.852-99.211-82.852h-162.99c0 0-99.211 0-99.211 82.852v858.296c0 82.852 99.211 82.852 99.211 82.852zM288.431 909.87c0 0-47.49 0-47.49-46.013v-811.503c0-46.013 47.49-46.013 47.49-46.013h145.961c0 0 47.49 0 47.49 46.013v811.503c0 46.013-47.49 46.013-47.49 46.013h-145.961z" horiz-adv-x="1325" />
<glyph unicode="&#xe60e;" d="M32.171 929.805l145.916-181.529c0 0-178.087-609.487-178.087-643.306s228.833-158.865 256.003-158.865c27.17 0 255.997 128.622 255.997 158.865s-178.087 643.306-178.087 643.306l137.922 181.529c0 0 32.171 40.3-32.171 40.3h-364.6c-64.341 0-42.894-40.3-42.894-40.3zM372.364 737.378l180.378-299.716c8.337-13.852 7.591-35.877-1.582-49.073l-48.74-70.12-130.056 418.909z" horiz-adv-x="559" />
<glyph unicode="&#xe60f;" d="M32.171 929.805c0 0-21.447 40.3 42.894 40.3h364.6c64.341 0 32.171-40.3 32.171-40.3l-137.922-181.529c0 0 178.087-613.063 178.087-643.306s-228.827-158.865-255.997-158.865c-27.17 0-256.003 125.046-256.003 158.865s178.087 643.306 178.087 643.306l-145.916 181.529zM235.905 760.914c0 0-166.087-624.834-166.087-638.584s186.182-107.003 186.182-107.003c0 0 186.182 96.859 186.182 107.003s-166.087 638.584-166.087 638.584l125.49 162.646h-295.114l129.433-162.646zM372.364 737.378l180.378-299.716c8.337-13.852 7.591-35.877-1.582-49.073l-48.74-70.12-130.056 418.909z" horiz-adv-x="559" />
<glyph unicode="&#xe610;" d="M209.455 434.832v46.545h279.273v279.273h46.545v-279.273h279.273v-46.545h-279.273v-279.273h-46.545v279.273h-279.273zM512-53.895c282.77 0 512 229.23 512 512s-229.23 512-512 512c-282.77 0-512-229.23-512-512s229.23-512 512-512v0z" />
<glyph unicode="&#xe611;" d="M209.455 434.832h279.273v-279.273h46.545v279.273h279.273v46.545h-279.273v279.273h-46.545v-279.273h-279.273v-46.545zM512-53.895v0c-282.77 0-512 229.23-512 512s229.23 512 512 512c282.77 0 512-229.23 512-512s-229.23-512-512-512zM512-7.35c257.063 0 465.455 208.391 465.455 465.455s-208.391 465.455-465.455 465.455c-257.063 0-465.455-208.391-465.455-465.455s208.391-465.455 465.455-465.455v0z" />
<glyph unicode="&#xe612;" d="M512 970.105c282.77 0 512-229.23 512-512s-229.23-512-512-512c-282.77 0-512 229.23-512 512s229.23 512 512 512zM256 458.105l139.636-186.182h46.545l-128 162.982h453.818v46.473h-453.818l128 162.909h-46.545l-139.636-186.182z" />
<glyph unicode="&#xe613;" d="M0 458.105c0 282.77 229.23 512 512 512s512-229.23 512-512c0-282.77-229.23-512-512-512s-512 229.23-512 512v0zM977.455 458.105c0 257.063-208.391 465.455-465.455 465.455s-465.455-208.391-465.455-465.455c0-257.063 208.391-465.455 465.455-465.455s465.455 208.391 465.455 465.455v0zM256 458.105l139.636-186.182h46.545l-128 162.982h453.818v46.473h-453.818l128 162.909h-46.545l-139.636-186.182z" />
<glyph unicode="&#xe614;" d="M0 458.105c0 282.77 229.23 512 512 512s512-229.23 512-512c0-282.77-229.23-512-512-512s-512 229.23-512 512v0zM512 202.105l186.182 139.636v46.545l-162.982-128v453.818h-46.473v-453.818l-162.909 128v-46.545l186.182-139.636z" />
<glyph unicode="&#xe615;" d="M0 458.105c0 282.77 229.23 512 512 512s512-229.23 512-512c0-282.77-229.23-512-512-512s-512 229.23-512 512v0zM977.455 458.105c0 257.063-208.391 465.455-465.455 465.455s-465.455-208.391-465.455-465.455c0-257.063 208.391-465.455 465.455-465.455s465.455 208.391 465.455 465.455v0zM512 202.105l186.182 139.636v46.545l-162.982-128v453.818h-46.473v-453.818l-162.909 128v-46.545l186.182-139.636z" />
<glyph unicode="&#xe616;" d="M0 458.105c0 282.77 229.23 512 512 512s512-229.23 512-512c0-282.77-229.23-512-512-512s-512 229.23-512 512v0zM768 458.105l-139.636 186.182h-46.545l128-162.982h-453.818v-46.473h453.818l-128-162.909h46.545l139.636 186.182z" />
<glyph unicode="&#xe617;" d="M0 458.105c0 282.77 229.23 512 512 512s512-229.23 512-512c0-282.77-229.23-512-512-512s-512 229.23-512 512v0zM977.455 458.105c0 257.063-208.391 465.455-465.455 465.455s-465.455-208.391-465.455-465.455c0-257.063 208.391-465.455 465.455-465.455s465.455 208.391 465.455 465.455v0zM768 458.105l-139.636 186.182h-46.545l128-162.982h-453.818v-46.473h453.818l-128-162.909h46.545l139.636 186.182z" />
<glyph unicode="&#xe618;" d="M0 458.105c0 282.77 229.23 512 512 512s512-229.23 512-512c0-282.77-229.23-512-512-512s-512 229.23-512 512v0zM512 714.105l-186.182-139.636v-46.545l162.982 128v-453.818h46.473v453.818l162.909-128v46.545l-186.182 139.636z" />
<glyph unicode="&#xe619;" d="M0 458.105c0 282.77 229.23 512 512 512s512-229.23 512-512c0-282.77-229.23-512-512-512s-512 229.23-512 512v0zM977.455 458.105c0 257.063-208.391 465.455-465.455 465.455s-465.455-208.391-465.455-465.455c0-257.063 208.391-465.455 465.455-465.455s465.455 208.391 465.455 465.455v0zM512 714.105l-186.182-139.636v-46.545l162.982 128v-453.818h46.473v453.818l162.909-128v46.545l-186.182 139.636z" />
<glyph unicode="&#xe61a;" d="M0 458.105c0 282.77 229.23 512 512 512s512-229.23 512-512c0-282.77-229.23-512-512-512s-512 229.23-512 512zM435.412 454.408l181.019 181.019-66.114 66.114-246.845-246.845 263.301-263.301 65.825 65.825-197.186 197.186z" />
<glyph unicode="&#xe61b;" d="M0 458.105c0 282.77 229.23 512 512 512s512-229.23 512-512c0-282.77-229.23-512-512-512s-512 229.23-512 512zM977.455 458.105c0 257.063-208.391 465.455-465.455 465.455s-465.455-208.391-465.455-465.455c0-257.063 208.391-465.455 465.455-465.455s465.455 208.391 465.455 465.455zM435.412 454.408l181.019 181.019-66.114 66.114-246.845-246.845 263.301-263.301 65.825 65.825-197.186 197.186z" />
<glyph unicode="&#xe61c;" d="M101.533 551.196c43.777 238.324 252.578 418.909 503.558 418.909 282.77 0 512-229.23 512-512s-229.23-512-512-512c-198.876 0-371.269 113.389-456.056 279.045h107.841c75.169-112.139 203.072-185.955 348.215-185.955 231.357 0 418.909 187.552 418.909 418.909s-187.552 418.909-418.909 418.909c-199.362 0-366.198-139.265-408.529-325.818h-95.029zM581.818 441.831l242.534-142.974 23.637 40.097-219.625 130.582v312.909h-46.545v-340.614zM139.636 365.014l139.636 186.182h-279.273l139.636-186.182z" horiz-adv-x="1117" />
<glyph unicode="&#xe61d;" d="M101.533 551.196c43.777 238.324 252.578 418.909 503.558 418.909 282.77 0 512-229.23 512-512s-229.23-512-512-512c-198.876 0-371.269 113.389-456.056 279.045h53.003c80.512-138.999 230.863-232.5 403.053-232.5 257.063 0 465.455 208.391 465.455 465.455s-208.391 465.455-465.455 465.455c-225.183 0-413.018-159.908-456.144-372.364h-47.414zM581.818 441.831l242.534-142.974 23.637 40.097-219.625 130.582v312.909h-46.545v-340.614zM116.364 411.56l116.364 139.636h-232.727l116.364-139.636z" horiz-adv-x="1117" />
<glyph unicode="&#xe61e;" d="M0 458.105c0-282.77 229.23-512 512-512s512 229.23 512 512c0 282.77-229.23 512-512 512s-512-229.23-512-512zM488.727 807.196h46.545v-372.364h-279.273v46.545h232.727v325.818z" />
<glyph unicode="&#xe61f;" d="M0 458.105c0 282.77 229.23 512 512 512s512-229.23 512-512c0-282.77-229.23-512-512-512s-512 229.23-512 512zM977.455 458.105c0 257.063-208.391 465.455-465.455 465.455s-465.455-208.391-465.455-465.455c0-257.063 208.391-465.455 465.455-465.455s465.455 208.391 465.455 465.455zM488.727 807.196h46.545v-372.364h-279.273v46.545h232.727v325.818z" />
<glyph unicode="&#xe620;" d="M0 458.105c0-282.77 229.23-512 512-512s512 229.23 512 512c0 282.77-229.23 512-512 512s-512-229.23-512-512zM744.373 710.112l32.913-32.913-263.301-263.301-197.476 197.476 32.913 32.913 164.563-164.563 230.388 230.388z" />
<glyph unicode="&#xe621;" d="M0 458.105c0 282.77 229.23 512 512 512s512-229.23 512-512c0-282.77-229.23-512-512-512s-512 229.23-512 512zM977.455 458.105c0 257.063-208.391 465.455-465.455 465.455s-465.455-208.391-465.455-465.455c0-257.063 208.391-465.455 465.455-465.455s465.455 208.391 465.455 465.455zM744.373 710.112l32.913-32.913-263.301-263.301-197.476 197.476 32.913 32.913 164.563-164.563 230.388 230.388z" />
<glyph unicode="&#xe622;" d="M512-53.895c282.77 0 512 229.23 512 512s-229.23 512-512 512c-282.77 0-512-229.23-512-512s229.23-512 512-512zM314.524 227.717l-32.913 32.913 197.476 197.476-197.476 197.476 32.913 32.913 197.476-197.476 197.476 197.476 32.913-32.913-197.476-197.476 197.476-197.476-32.913-32.913-197.476 197.476-197.476-197.476z" />
<glyph unicode="&#xe623;" d="M512-53.895v0c-282.77 0-512 229.23-512 512s229.23 512 512 512c282.77 0 512-229.23 512-512s-229.23-512-512-512zM512-7.35c257.063 0 465.455 208.391 465.455 465.455s-208.391 465.455-465.455 465.455c-257.063 0-465.455-208.391-465.455-465.455s208.391-465.455 465.455-465.455zM314.524 227.717l-32.913 32.913 197.476 197.476-197.476 197.476 32.913 32.913 197.476-197.476 197.476 197.476 32.913-32.913-197.476-197.476 197.476-197.476-32.913-32.913-197.476 197.476-197.476-197.476z" />
<glyph unicode="&#xe624;" d="M512-53.895v0c-282.77 0-512 229.23-512 512s229.23 512 512 512c282.77 0 512-229.23 512-512s-229.23-512-512-512zM265.104 704.909l164.595-329.094 329.094-164.595-164.515 329.174-329.174 164.515zM340.781 627.568l216.699-124.364-90.415-91.83-126.284 216.193z" />
<glyph unicode="&#xe625;" d="M512-53.895v0c-282.77 0-512 229.23-512 512s229.23 512 512 512c282.77 0 512-229.23 512-512s-229.23-512-512-512zM512-7.35c257.063 0 465.455 208.391 465.455 465.455s-208.391 465.455-465.455 465.455c-257.063 0-465.455-208.391-465.455-465.455s208.391-465.455 465.455-465.455v0zM265.104 704.909l164.595-329.094 329.094-164.595-164.515 329.174-329.174 164.515zM340.781 627.568l216.699-124.364-90.415-91.83-126.284 216.193z" />
<glyph unicode="&#xe626;" d="M512-53.895v0c-282.77 0-512 229.23-512 512s229.23 512 512 512c282.77 0 512-229.23 512-512s-229.23-512-512-512zM600.403 320.51l17.435 358.885-106.362-343.205 22.95-129.847 65.976 114.167zM186.182 458.105c0 179.944 145.874 325.818 325.818 325.818s325.818-145.874 325.818-325.818h46.545c0 205.651-166.713 372.364-372.364 372.364s-372.364-166.713-372.364-372.364h46.545z" />
<glyph unicode="&#xe627;" d="M512-53.895c-282.77 0-512 229.23-512 512s229.23 512 512 512c282.77 0 512-229.23 512-512s-229.23-512-512-512zM512-7.35c257.063 0 465.455 208.391 465.455 465.455s-208.391 465.455-465.455 465.455c-257.063 0-465.455-208.391-465.455-465.455s208.391-465.455 465.455-465.455zM600.403 320.51l17.435 358.885-106.362-343.205 22.95-129.847 65.976 114.167zM186.182 458.105c0 179.944 145.874 325.818 325.818 325.818s325.818-145.874 325.818-325.818h46.545c0 205.651-166.713 372.364-372.364 372.364s-372.364-166.713-372.364-372.364h46.545z" />
<glyph unicode="&#xe628;" d="M512-53.895v0c-282.77 0-512 229.23-512 512s229.23 512 512 512c282.77 0 512-229.23 512-512s-229.23-512-512-512zM600.306 652.413l-272.234-348.444-2.295-116.341 112.33 30.372 272.234 348.444-36.678 28.656-263.573-337.358-41.329-15.097 4.65 43.753 263.573 337.358-36.678 28.656zM708.499 718.566c-18.688 14.6-65.335-8.022-65.335-8.022l-28.656-36.678 110.035-85.969 28.656 36.678c0 0 10.761 50.66-8.022 65.335l-36.678 28.656z" />
<glyph unicode="&#xe629;" d="M512-53.895v0c-282.77 0-512 229.23-512 512s229.23 512 512 512c282.77 0 512-229.23 512-512s-229.23-512-512-512zM512-7.35c257.063 0 465.455 208.391 465.455 465.455s-208.391 465.455-465.455 465.455c-257.063 0-465.455-208.391-465.455-465.455s208.391-465.455 465.455-465.455v0zM600.306 652.413l-272.234-348.444-2.295-116.341 112.33 30.372 272.234 348.444-36.678 28.656-263.573-337.358-41.329-15.097 4.65 43.753 263.573 337.358-36.678 28.656zM708.499 718.566c-18.688 14.6-65.335-8.022-65.335-8.022l-28.656-36.678 110.035-85.969 28.656 36.678c0 0 10.761 50.66-8.022 65.335l-36.678 28.656z" />
<glyph unicode="&#xe62a;" d="M0 458.105c0 282.77 229.23 512 512 512s512-229.23 512-512c0-282.77-229.23-512-512-512s-512 229.23-512 512zM512 434.832l-349.091 209.455v-46.545l349.091-209.455 349.091 209.455v46.545l-349.091-209.455zM303.611 444.312l-156.185-125.534 22.83-47.162 176.213 148.486-42.858 24.21zM702.284 434.832l-42.858-24.21 176.213-148.486 22.83 47.162-156.185 125.534z" />
<glyph unicode="&#xe62b;" d="M0 458.105c0 282.77 229.23 512 512 512s512-229.23 512-512c0-282.77-229.23-512-512-512s-512 229.23-512 512zM977.455 458.105c0 257.063-208.391 465.455-465.455 465.455s-465.455-208.391-465.455-465.455c0-257.063 208.391-465.455 465.455-465.455s465.455 208.391 465.455 465.455zM512 434.832l-349.091 209.455v-46.545l349.091-209.455 349.091 209.455v46.545l-349.091-209.455zM303.611 444.312l-156.185-125.534 22.83-47.162 176.213 148.486-42.858 24.21zM702.284 434.832l156.185-125.534-22.83-47.162-176.213 148.486 42.858 24.21z" />
<glyph unicode="&#xe62c;" d="M535.273 226.527c117.605 11.676 209.455 110.901 209.455 231.578 0 36.227-8.278 70.521-23.044 101.094v0l-163.607-94.458c0.309-2.167 0.469-4.383 0.469-6.635 0-17.228-9.36-32.271-23.273-40.319v-191.26zM488.727 226.527c-117.605 11.676-209.455 110.901-209.455 231.578 0 33.589 7.116 65.516 19.922 94.355l166.289-96.007c0.577-16.535 9.778-30.877 23.244-38.667v-191.26zM697.333 598.886c-42.509 55.875-109.709 91.946-185.333 91.946-78.296 0-147.561-38.664-189.745-97.94v0l165.078-95.308c7.152 4.478 15.607 7.066 24.667 7.066 5.901 0 11.546-1.098 16.74-3.101l168.593 97.337zM0 458.105c0 282.77 229.23 512 512 512s512-229.23 512-512c0-282.77-229.23-512-512-512s-512 229.23-512 512zM343.415 680.773l-94.764 40.613 40.619-94.778c-7.093-9.361-13.609-19.183-19.496-29.413l-103.086 0.357 74.401-71.351c-2.446-9.76-4.378-19.725-5.765-29.862l-95.755-38.302 95.774-38.31c1.617-11.765 3.967-23.297 7.002-34.547l-73.17-72.664 103.149 2.158c5.213-8.692 10.885-17.077 16.983-25.122l-40.656-94.865 94.879 40.662c9.33-7.068 19.119-13.563 29.312-19.432l-0.358-103.194 71.417 74.47c9.729-2.438 19.66-4.365 29.763-5.752l38.335-95.837 38.335 95.837c11.743 1.612 23.253 3.954 34.483 6.979l72.703-73.209-2.159 103.176c8.687 5.206 17.068 10.872 25.108 16.962l94.879-40.662-40.656 94.865c7.076 9.334 13.579 19.127 19.455 29.326l103.165-0.358-74.428 71.378c2.447 9.749 4.381 19.702 5.773 29.828l95.774 38.31-95.755 38.302c-1.612 11.778-3.959 23.321-6.993 34.583l73.141 72.635-103.069-2.156c-5.224 8.722-10.911 17.136-17.027 25.207l40.619 94.778-94.764-40.613c-9.365 7.101-19.191 13.625-29.427 19.519l0.357 103.058-71.312-74.36c-9.781 2.455-19.767 4.394-29.927 5.786l-38.277 95.692-38.277-95.692c-11.8-1.617-23.365-3.972-34.647-7.016l-72.596 73.101 2.156-103.042c-8.727-5.231-17.146-10.925-25.22-17.048z" />
<glyph unicode="&#xe62d;" d="M535.273 226.527v191.26c13.912 8.048 23.273 23.090 23.273 40.319 0 2.253-0.16 4.468-0.469 6.635l163.607 94.458c14.767-30.572 23.044-64.866 23.044-101.094 0-120.677-91.85-219.902-209.455-231.578zM488.727 226.527c-117.605 11.676-209.455 110.901-209.455 231.578 0 33.589 7.116 65.516 19.922 94.355l166.289-96.007c0.577-16.535 9.778-30.877 23.244-38.667v-191.26zM697.333 598.886l-168.593-97.337c-5.195 2.003-10.839 3.101-16.74 3.101-9.060 0-17.515-2.588-24.667-7.066l-165.078 95.308c42.184 59.276 111.449 97.94 189.745 97.94 75.625 0 142.824-36.071 185.333-91.946zM0 458.105c0 282.77 229.23 512 512 512s512-229.23 512-512c0-282.77-229.23-512-512-512s-512 229.23-512 512zM977.455 458.105c0 257.063-208.391 465.455-465.455 465.455s-465.455-208.391-465.455-465.455c0-257.063 208.391-465.455 465.455-465.455s465.455 208.391 465.455 465.455zM343.415 680.773l-94.764 40.613 40.619-94.778c-7.093-9.361-13.609-19.183-19.496-29.413l-103.086 0.357 74.401-71.351c-2.446-9.76-4.378-19.725-5.765-29.862l-95.755-38.302 95.774-38.31c1.617-11.765 3.967-23.297 7.002-34.547l-73.17-72.664 103.149 2.158c5.213-8.692 10.885-17.077 16.983-25.122l-40.656-94.865 94.879 40.662c9.33-7.068 19.119-13.563 29.312-19.432l-0.358-103.194 71.417 74.47c9.729-2.438 19.66-4.365 29.763-5.752l38.335-95.837 38.335 95.837c11.743 1.612 23.253 3.954 34.483 6.979l72.703-73.209-2.159 103.176c8.687 5.206 17.068 10.872 25.108 16.962l94.879-40.662-40.656 94.865c7.076 9.334 13.579 19.127 19.455 29.326l103.165-0.358-74.428 71.378c2.447 9.749 4.381 19.702 5.773 29.828l95.774 38.31-95.755 38.302c-1.612 11.778-3.959 23.321-6.993 34.583l73.141 72.635-103.069-2.156c-5.224 8.722-10.911 17.136-17.027 25.207l40.619 94.778-94.764-40.613c-9.365 7.101-19.191 13.625-29.427 19.519l0.357 103.058-71.312-74.36c-9.781 2.455-19.767 4.394-29.927 5.786l-38.277 95.692-38.277-95.692c-11.8-1.617-23.365-3.972-34.647-7.016l-72.596 73.101 2.156-103.042c-8.727-5.231-17.146-10.925-25.22-17.048z" />
<glyph unicode="&#xe62e;" d="M0 458.105c0 282.77 229.23 512 512 512s512-229.23 512-512c0-282.77-229.23-512-512-512s-512 229.23-512 512v0zM488.727 877.014v-162.909l23.273-46.545 23.273 46.545v162.909h-46.545zM512 341.741l-23.273-46.545v-256h46.545v256l-23.273 46.545zM535.273 411.56c0 0 71.856-69.574 80.96-115.097 14.168-70.841 124.284-138.244 124.284-138.244l-21.756 55.091h61.011c0 0-99.875 44.955-114.006 104.205s-83.949 117.318-83.949 117.318l-46.545-23.273zM497.666 411.56l-46.545 23.273c0 0-69.818-58.068-83.949-117.318s-114.006-104.205-114.006-104.205h61.011l-21.756-55.091c0 0 110.116 67.404 124.284 138.244 9.105 45.523 80.96 115.097 80.96 115.097zM744.727 481.378l-69.818-46.545h256v46.545h-186.182zM93.091 481.378v-46.545h256l-69.818 46.545h-186.182zM512 434.832c12.853 0 23.273 10.42 23.273 23.273s-10.42 23.273-23.273 23.273c-12.853 0-23.273-10.42-23.273-23.273s10.42-23.273 23.273-23.273v0zM755.441 701.764c-135.041 135.041-230.123-131.916-230.123-131.916l16.456-82.282c0 0 98.402 263.637 181.019 181.019s-181.019-181.019-181.019-181.019l82.282-16.456c0 0 266.427 95.612 131.385 230.653v0zM268.341 701.546c-135.041-135.041 131.916-230.123 131.916-230.123l82.282 16.456c0 0-263.637 98.402-181.019 181.019s181.019-181.019 181.019-181.019l16.456 82.282c0 0-95.612 266.427-230.653 131.385v0z" />
<glyph unicode="&#xe62f;" d="M0 458.105c0 282.77 229.23 512 512 512s512-229.23 512-512c0-282.77-229.23-512-512-512s-512 229.23-512 512v0zM977.455 458.105c0 257.063-208.391 465.455-465.455 465.455s-465.455-208.391-465.455-465.455c0-257.063 208.391-465.455 465.455-465.455s465.455 208.391 465.455 465.455v0zM488.727 877.014v-162.909l23.273-46.545 23.273 46.545v162.909h-46.545zM512 341.741l-23.273-46.545v-256h46.545v256l-23.273 46.545zM535.273 411.56c0 0 71.856-69.574 80.96-115.097 14.168-70.841 124.284-138.244 124.284-138.244l-21.756 55.091h61.011c0 0-99.875 44.955-114.006 104.205s-83.949 117.318-83.949 117.318l-46.545-23.273zM497.666 411.56c0 0-71.856-69.574-80.96-115.097-14.168-70.841-124.284-138.244-124.284-138.244l21.756 55.091h-61.011c0 0 99.875 44.955 114.006 104.205s83.949 117.318 83.949 117.318l46.545-23.273zM744.727 481.378l-69.818-46.545h256v46.545h-186.182zM93.091 481.378v-46.545h256l-69.818 46.545h-186.182zM512 434.832c12.853 0 23.273 10.42 23.273 23.273s-10.42 23.273-23.273 23.273c-12.853 0-23.273-10.42-23.273-23.273s10.42-23.273 23.273-23.273v0zM755.441 701.764c-135.041 135.041-230.123-131.916-230.123-131.916l16.456-82.282c0 0 98.402 263.637 181.019 181.019s-181.019-181.019-181.019-181.019l82.282-16.456c0 0 266.427 95.612 131.385 230.653v0zM268.341 701.546c-135.041-135.041 131.916-230.123 131.916-230.123l82.282 16.456c0 0-263.637 98.402-181.019 181.019s181.019-181.019 181.019-181.019l16.456 82.282c0 0-95.612 266.427-230.653 131.385v0z" />
<glyph unicode="&#xe630;" d="M0 458.105v0c0-282.77 229.23-512 512-512s512 229.23 512 512c0 282.77-229.23 512-512 512s-512-229.23-512-512zM459.33 275.378h67.841v-70.909h-67.841v70.909zM386.034 666.912c27.727 29.887 65.795 44.83 114.205 44.83 44.773 0 80.625-12.784 107.557-38.352s40.398-58.238 40.398-98.011c0-24.091-4.943-43.636-14.83-58.636s-29.829-37.045-59.83-66.136c-21.818-21.136-35.966-39.034-42.443-53.693s-9.716-36.307-9.716-64.943h-60.682c0 32.5 3.864 58.693 11.591 78.58s24.659 42.67 50.795 68.352l27.273 26.932c8.182 7.727 14.773 15.795 19.773 24.205 9.091 14.773 13.636 30.114 13.636 46.023 0 22.273-6.648 41.591-19.943 57.955s-35.284 24.545-65.966 24.545c-37.955 0-64.204-14.091-78.75-42.273-8.182-15.682-12.841-38.295-13.977-67.841h-60.682c0 49.091 13.863 88.579 41.591 118.466 0 0-27.727-29.887 0 0v0z" />
<glyph unicode="&#xe631;" d="M0 458.105c0 282.77 229.23 512 512 512s512-229.23 512-512c0-282.77-229.23-512-512-512s-512 229.23-512 512v0zM977.455 458.105c0 257.063-208.391 465.455-465.455 465.455s-465.455-208.391-465.455-465.455c0-257.063 208.391-465.455 465.455-465.455s465.455 208.391 465.455 465.455v0zM459.33 275.378h67.841v-70.909h-67.841v70.909zM386.034 666.912c27.727 29.887 65.795 44.83 114.205 44.83 44.773 0 80.625-12.784 107.557-38.352s40.398-58.238 40.398-98.011c0-24.091-4.943-43.636-14.83-58.636s-29.829-37.045-59.83-66.136c-21.818-21.136-35.966-39.034-42.443-53.693s-9.716-36.307-9.716-64.943h-60.682c0 32.5 3.864 58.693 11.591 78.58s24.659 42.67 50.795 68.352l27.273 26.932c8.182 7.727 14.773 15.795 19.773 24.205 9.091 14.773 13.636 30.114 13.636 46.023 0 22.273-6.648 41.591-19.943 57.955s-35.284 24.545-65.966 24.545c-37.955 0-64.204-14.091-78.75-42.273-8.182-15.682-12.841-38.295-13.977-67.841h-60.682c0 49.091 13.863 88.579 41.591 118.466 0 0-27.727-29.887 0 0v0z" />
<glyph unicode="&#xe632;" d="M0 458.105c0 282.77 229.23 512 512 512s512-229.23 512-512c0-282.77-229.23-512-512-512s-512 229.23-512 512v0zM523.636 621.014c32.133 0 58.182 26.049 58.182 58.182s-26.049 58.182-58.182 58.182c-32.133 0-58.182-26.049-58.182-58.182s26.049-58.182 58.182-58.182v0zM395.636 574.469v-46.545h69.818v-325.818h-69.818v-46.545h256v46.545h-69.818v372.364h-186.182z" />
<glyph unicode="&#xe633;" d="M0 458.105c0 282.77 229.23 512 512 512s512-229.23 512-512c0-282.77-229.23-512-512-512s-512 229.23-512 512v0zM977.455 458.105c0 257.063-208.391 465.455-465.455 465.455s-465.455-208.391-465.455-465.455c0-257.063 208.391-465.455 465.455-465.455s465.455 208.391 465.455 465.455v0zM523.636 621.014c32.133 0 58.182 26.049 58.182 58.182s-26.049 58.182-58.182 58.182c-32.133 0-58.182-26.049-58.182-58.182s26.049-58.182 58.182-58.182v0zM395.636 574.469v-46.545h69.818v-325.818h-69.818v-46.545h256v46.545h-69.818v372.364h-186.182z" />
<glyph unicode="&#xe634;" d="M0 458.105c0 282.77 229.23 512 512 512s512-229.23 512-512c0-282.77-229.23-512-512-512s-512 229.23-512 512zM791.273 365.014c51.413 0 93.091 41.678 93.091 93.091s-41.678 93.091-93.091 93.091c-51.413 0-93.091-41.678-93.091-93.091s41.678-93.091 93.091-93.091zM512 365.014c51.413 0 93.091 41.678 93.091 93.091s-41.678 93.091-93.091 93.091c-51.413 0-93.091-41.678-93.091-93.091s41.678-93.091 93.091-93.091zM232.727 365.014c51.413 0 93.091 41.678 93.091 93.091s-41.678 93.091-93.091 93.091c-51.413 0-93.091-41.678-93.091-93.091s41.678-93.091 93.091-93.091z" />
<glyph unicode="&#xe635;" d="M0 458.105c0 282.77 229.23 512 512 512s512-229.23 512-512c0-282.77-229.23-512-512-512s-512 229.23-512 512zM977.455 458.105c0 257.063-208.391 465.455-465.455 465.455s-465.455-208.391-465.455-465.455c0-257.063 208.391-465.455 465.455-465.455s465.455 208.391 465.455 465.455zM791.273 365.014c51.413 0 93.091 41.678 93.091 93.091s-41.678 93.091-93.091 93.091c-51.413 0-93.091-41.678-93.091-93.091s41.678-93.091 93.091-93.091zM512 365.014c51.413 0 93.091 41.678 93.091 93.091s-41.678 93.091-93.091 93.091c-51.413 0-93.091-41.678-93.091-93.091s41.678-93.091 93.091-93.091zM232.727 365.014c51.413 0 93.091 41.678 93.091 93.091s-41.678 93.091-93.091 93.091c-51.413 0-93.091-41.678-93.091-93.091s41.678-93.091 93.091-93.091z" />
<glyph unicode="&#xe636;" d="M0 458.105c0-282.77 229.23-512 512-512s512 229.23 512 512c0 282.77-229.23 512-512 512s-512-229.23-512-512zM643.133 512.517l-9.069 14.873c11.366 14.268 17.049 26.48 17.049 36.637 0 15.719-14.51 28.536-43.53 38.451-29.504 9.673-52.961 20.314-70.373 31.922l0.363-321.031v-18.5c0-10.399-0.484-17.533-1.451-21.402-3.627-14.51-14.691-26.662-33.191-36.456s-42.623-14.691-72.368-14.691c-67.471 0-101.206 19.588-101.206 58.765 0 16.445 10.58 30.471 31.74 42.079s46.492 17.412 75.996 17.412c26.602 0 52.356-10.761 77.265-32.284v407.002l22.128 1.088c5.562-14.994 11.668-25.392 18.319-31.196s19.286-11.608 37.907-17.412c63.602-19.105 95.402-45.343 95.402-78.716 0-21.765-14.993-47.278-44.981-76.54 0 0 29.987 29.262 0 0z" />
<glyph unicode="&#xe637;" d="M0 458.105c0 282.77 229.23 512 512 512s512-229.23 512-512c0-282.77-229.23-512-512-512s-512 229.23-512 512zM977.455 458.105c0 257.063-208.391 465.455-465.455 465.455s-465.455-208.391-465.455-465.455c0-257.063 208.391-465.455 465.455-465.455s465.455 208.391 465.455 465.455zM643.133 512.517l-9.069 14.873c11.366 14.268 17.049 26.48 17.049 36.637 0 15.719-14.51 28.536-43.53 38.451-29.504 9.673-52.961 20.314-70.373 31.922l0.363-321.031v-18.5c0-10.399-0.484-17.533-1.451-21.402-3.627-14.51-14.691-26.662-33.191-36.456s-42.623-14.691-72.368-14.691c-67.471 0-101.206 19.588-101.206 58.765 0 16.445 10.58 30.471 31.74 42.079s46.492 17.412 75.996 17.412c26.602 0 52.356-10.761 77.265-32.284v407.002l22.128 1.088c5.562-14.994 11.668-25.392 18.319-31.196s19.286-11.608 37.907-17.412c63.602-19.105 95.402-45.343 95.402-78.716 0-21.765-14.993-47.278-44.981-76.54 0 0 29.987 29.262 0 0z" />
<glyph unicode="&#xe638;" d="M0 458.105c0 282.77 229.23 512 512 512s512-229.23 512-512c0-282.77-229.23-512-512-512s-512 229.23-512 512zM428.9 541.789l247.302 61.7v-222.723c-12.039 5.016-27.088 7.524-42.638 7.524-9.531 0-27.59-5.518-39.127-11.537-21.57-11.537-34.612-30.098-34.612-49.661 0-10.534 4.515-22.072 11.036-30.098 8.528-9.531 22.072-14.547 40.13-14.547 21.57 0 44.143 9.531 62.202 25.583 16.554 15.55 25.081 35.616 25.081 60.697v317.028l-291.445-70.729v-304.989c-10.033 4.515-24.078 7.023-39.629 7.023-9.531 0-19.563-2.007-30.599-6.521-27.59-11.036-44.645-31.603-44.645-54.176 0-10.534 4.515-22.072 11.036-30.098 8.528-9.531 22.573-14.547 40.632-14.547 29.596 0 66.215 21.57 77.752 46.651 4.013 9.029 7.524 26.586 7.524 39.127 0 0 0-12.541 0 0v244.293z" />
<glyph unicode="&#xe639;" d="M0 458.105c0 282.77 229.23 512 512 512s512-229.23 512-512c0-282.77-229.23-512-512-512s-512 229.23-512 512zM977.455 458.105c0 257.063-208.391 465.455-465.455 465.455s-465.455-208.391-465.455-465.455c0-257.063 208.391-465.455 465.455-465.455s465.455 208.391 465.455 465.455zM428.9 541.789l247.302 61.7v-222.723c-12.039 5.016-27.088 7.524-42.638 7.524-9.531 0-27.59-5.518-39.127-11.537-21.57-11.537-34.612-30.098-34.612-49.661 0-10.534 4.515-22.072 11.036-30.098 8.528-9.531 22.072-14.547 40.13-14.547 21.57 0 44.143 9.531 62.202 25.583 16.554 15.55 25.081 35.616 25.081 60.697v317.028l-291.445-70.729v-304.989c-10.033 4.515-24.078 7.023-39.629 7.023-9.531 0-19.563-2.007-30.599-6.521-27.59-11.036-44.645-31.603-44.645-54.176 0-10.534 4.515-22.072 11.036-30.098 8.528-9.531 22.573-14.547 40.632-14.547 29.596 0 66.215 21.57 77.752 46.651 4.013 9.029 7.524 26.586 7.524 39.127 0 0 0-12.541 0 0v244.293z" />
<glyph unicode="&#xe63a;" d="M0 458.105c0 282.77 229.23 512 512 512s512-229.23 512-512c0-282.77-229.23-512-512-512s-512 229.23-512 512zM565.315 438.53l-181.019-181.019 66.114-66.114 246.845 246.845-263.301 263.301-65.825-65.825 197.186-197.186z" />
<glyph unicode="&#xe63b;" d="M0 458.105c0 282.77 229.23 512 512 512s512-229.23 512-512c0-282.77-229.23-512-512-512s-512 229.23-512 512zM977.455 458.105c0 257.063-208.391 465.455-465.455 465.455s-465.455-208.391-465.455-465.455c0-257.063 208.391-465.455 465.455-465.455s465.455 208.391 465.455 465.455zM565.315 438.53l-181.019-181.019 66.114-66.114 246.845 246.845-263.301 263.301-65.825-65.825 197.186-197.186z" />
<glyph unicode="&#xe63c;" d="M795.873 144.311c-75.071-67.955-174.638-109.347-283.873-109.347-233.694 0-423.14 189.446-423.14 423.14 0 109.235 41.392 208.802 109.347 283.873l597.667-597.667zM825.794 174.232l-597.667 597.667c75.071 67.955 174.638 109.347 283.873 109.347 233.694 0 423.14-189.446 423.14-423.14 0-109.235-41.392-208.802-109.347-283.873zM1024 458.105c0 282.77-229.23 512-512 512s-512-229.23-512-512c0-282.77 229.23-512 512-512s512 229.23 512 512z" />
<glyph unicode="&#xe63d;" d="M824.261 112.932c-82.578-74.75-192.102-120.281-312.261-120.281-257.063 0-465.455 208.391-465.455 465.455 0 120.158 45.531 229.683 120.281 312.261l657.434-657.434zM857.173 145.844l-657.434 657.434c82.578 74.75 192.102 120.281 312.261 120.281 257.063 0 465.455-208.391 465.455-465.455 0-120.158-45.531-229.683-120.281-312.261zM512-53.895c282.77 0 512 229.23 512 512s-229.23 512-512 512c-282.77 0-512-229.23-512-512s229.23-512 512-512v0z" />
<glyph unicode="&#xe63e;" d="M1115.004 411.56c-23.516-260.957-242.833-465.455-509.913-465.455-198.394 0-370.433 112.84-455.438 277.841h108.033c75.276-111.463 202.782-184.75 347.404-184.75 215.624 0 393.199 162.911 416.352 372.364h-90.534l139.636 186.182 139.636-186.182h-95.178zM101.533 551.196c43.777 238.324 252.578 418.909 503.558 418.909 179.47 0 337.374-92.34 428.791-232.102h-95.029l-17.99-4.62c-76.794 88.017-189.788 143.631-315.772 143.631-199.362 0-366.198-139.265-408.529-325.818h82.711l-139.636-186.182-139.636 186.182h101.533z" horiz-adv-x="1210" />
<glyph unicode="&#xe63f;" d="M1115.004 411.56c-23.516-260.957-242.833-465.455-509.913-465.455-198.394 0-370.433 112.84-455.438 277.841h53.084c80.681-138.335 230.661-231.295 402.353-231.295 241.354 0 439.803 183.7 463.156 418.909h-90.793l116.364 139.636 116.364-139.636h-95.178zM101.533 551.196c43.777 238.324 252.578 418.909 503.558 418.909 179.47 0 337.374-92.34 428.791-232.102h-56.863c-84.947 112.698-219.928 185.557-371.927 185.557-225.183 0-413.018-159.908-456.144-372.364h83.78l-116.364-139.636-116.364 139.636h101.533z" horiz-adv-x="1210" />
<glyph unicode="&#xe640;" d="M905.475 785.755c167.896-201.153 157.417-500.835-31.437-689.689-140.286-140.286-341.725-182.146-518.506-125.58l76.391 76.391c132.044-25.588 274.026 12.75 376.29 115.014 152.469 152.469 162.838 393.229 31.105 557.706l-64.017-64.017-32.913 230.388 230.388-32.913-67.301-67.301zM90.106 167.861c-137.566 199.475-117.614 474.813 59.856 652.283 126.905 126.905 303.854 173.265 467.322 139.080l-67.196-67.196-9.454-15.987c-116.539 7.936-235.763-32.638-324.847-121.722-140.97-140.97-160.466-357.416-58.485-519.262l58.485 58.485 32.913-230.388-230.388 32.913 71.795 71.795zM1021.913 411.56c-23.516-260.957-242.833-465.455-509.913-465.455-198.394 0-370.433 112.84-455.438 277.841h108.033c75.276-111.463 202.782-184.75 347.404-184.75 215.624 0 393.199 162.911 416.352 372.364h-90.534l139.636 186.182 139.636-186.182h-95.178zM8.442 551.196c43.777 238.324 252.578 418.909 503.558 418.909 179.47 0 337.374-92.34 428.791-232.102h-95.029l-17.99-4.62c-76.794 88.017-189.788 143.631-315.772 143.631-199.362 0-366.198-139.265-408.529-325.818h82.711l-139.636-186.182-139.636 186.182h101.533z" />
<glyph unicode="&#xe641;" d="M905.475 785.755c167.896-201.153 157.417-500.835-31.437-689.689-140.286-140.286-341.725-182.146-518.506-125.58l37.536 37.536c154.868-40.767 326.653-0.449 448.057 120.956 170.663 170.663 181.093 440.883 31.288 623.714l-64.2-64.2-16.456 181.019 181.019-16.456-67.301-67.301zM90.106 167.861c-137.566 199.475-117.614 474.813 59.856 652.283 126.905 126.905 303.854 173.265 467.322 139.080l-40.208-40.208c-139.756 19.624-286.721-24.304-394.201-131.784-159.228-159.228-178.976-405.119-59.242-585.843l59.242 59.242 16.456-181.019-181.019 16.456 71.795 71.795zM1021.913 411.56c-23.516-260.957-242.833-465.455-509.913-465.455-198.394 0-370.433 112.84-455.438 277.841h53.084c80.681-138.335 230.661-231.295 402.353-231.295 241.354 0 439.803 183.7 463.156 418.909h-90.793l116.364 139.636 116.364-139.636h-95.178zM8.442 551.196c43.777 238.324 252.578 418.909 503.558 418.909 179.47 0 337.374-92.34 428.791-232.102h-56.863c-84.947 112.698-219.928 185.557-371.927 185.557-225.183 0-413.018-159.908-456.144-372.364h83.78l-116.364-139.636-116.364 139.636h101.533z" />
<glyph unicode="&#xe642;" d="M512-53.895v0c-282.77 0-512 229.23-512 512s229.23 512 512 512c282.77 0 512-229.23 512-512s-229.23-512-512-512zM616.664 727.070c-25.069-6.886 3.783-73.22-22.67-67.682-26.19 5.482-57.643 31.3-74.731 46.048-20.175 17.412 34.267 15.991 44.413 30.312 12.161 17.165 1.606 33.583-8.383 36.774-37.959 12.128-90.626-16.301-115.53-10.039-44.004 11.065-23.643 21.815-71.014 28.417-23.637 3.294-49.434-13.754-88.672-6.025-47.867 9.429-47.434-80.352-65.331-101.368 44.801 39.097 135.401 10.497 126.526-24.12-11.601-45.252 71.187-116.306 84.346-148.819 6.895-17.034 35.351 18.448 58.413-45.952 4.18-20.052 29.296-6.728 50.873-10.656 26.425-4.811 41.493-26.406 50.206-31.324 26.441-14.927-107.988-46.316 24.31-142.858-3.363-48.058-1.38-92.816-6.488-100.92-11.655-18.488-5.46-30.34 0-36.203-31.557-8.080 6.317-75.28 31.557-59.934 15.502 9.425 0 29.034 13.497 47.684-13.497 32.595 98.834 121.765 119.515 137.259 0 0-0.703 39.203 30.609 63.843 15.557 12.242-23.446 37.029-50.1 28.465 0 0-1.588 50.431-74.617 44.138-27.954-2.409-46.606 15.128-46.606 15.128s-23.854 45.377-50.054 45.377c-4.229 0 3.241 16.805-13.056 25.339-12.784 6.694-48.348 7.116-48.348 20.613s34.488 8.118 55.972 25.167c6.455 5.123 15.973-20.068 22.695-14.4 7.682 6.478-8.429 18.347 15.425 38.631 4.314 3.668 27.722 28.85 47.612 45.175 7.179 5.893 21.288 1.348 23.474 7.29 8.276 22.496-30.158 3.57-17.221 32.106 4.634 10.222 75.842-17.989 79.926-13.886 9.86 9.905-52.666 13.271-26.748 28.735 11 6.563-74.729 74.568-99.798 67.682v0z" />
<glyph unicode="&#xe643;" d="M512-53.895v0c-282.77 0-512 229.23-512 512s229.23 512 512 512c282.77 0 512-229.23 512-512s-229.23-512-512-512zM512-7.35c257.063 0 465.455 208.391 465.455 465.455s-208.391 465.455-465.455 465.455c-257.063 0-465.455-208.391-465.455-465.455s208.391-465.455 465.455-465.455v0zM616.664 727.070c-25.069-6.886 3.783-73.22-22.67-67.682-26.19 5.482-57.643 31.3-74.731 46.048-20.175 17.412 34.267 15.991 44.413 30.312 12.161 17.165 1.606 33.583-8.383 36.774-37.959 12.128-90.626-16.301-115.53-10.039-44.004 11.065-23.643 21.815-71.014 28.417-23.637 3.294-49.434-13.754-88.672-6.025-47.867 9.429-47.434-80.352-65.331-101.368 44.801 39.097 135.401 10.497 126.526-24.12-11.601-45.252 71.187-116.306 84.346-148.819 6.895-17.034 35.351 18.448 58.413-45.952 4.18-20.052 29.296-6.728 50.873-10.656 26.425-4.811 41.493-26.406 50.206-31.324 26.441-14.927-107.988-46.316 24.31-142.858-3.363-48.058-1.38-92.816-6.488-100.92-11.655-18.488-5.46-30.34 0-36.203-31.557-8.080 6.317-75.28 31.557-59.934 15.502 9.425 0 29.034 13.497 47.684-13.497 32.595 98.834 121.765 119.515 137.259 0 0-0.703 39.203 30.609 63.843 15.557 12.242-23.446 37.029-50.1 28.465 0 0-1.588 50.431-74.617 44.138-27.954-2.409-46.606 15.128-46.606 15.128s-23.854 45.377-50.054 45.377c-4.229 0 3.241 16.805-13.056 25.339-12.784 6.694-48.348 7.116-48.348 20.613s34.488 8.118 55.972 25.167c6.455 5.123 15.973-20.068 22.695-14.4 7.682 6.478-8.429 18.347 15.425 38.631 4.314 3.668 27.722 28.85 47.612 45.175 7.179 5.893 21.288 1.348 23.474 7.29 8.276 22.496-30.158 3.57-17.221 32.106 4.634 10.222 75.842-17.989 79.926-13.886 9.86 9.905-52.666 13.271-26.748 28.735 11 6.563-74.729 74.568-99.798 67.682v0z" />
<glyph unicode="&#xe644;" d="M512-53.895c282.77 0 512 229.23 512 512s-229.23 512-512 512c-282.77 0-512-229.23-512-512s229.23-512 512-512zM434.555 162.607v295.515h-60.056v97.956h60.056v59.238c0 79.902 23.889 137.519 111.375 137.519h104.077v-97.755h-73.286c-36.699 0-45.062-24.387-45.062-49.925v-49.077h112.94l-15.415-97.956h-97.524v-295.515h-97.103z" />
<glyph unicode="&#xe645;" d="M512-53.895c-282.77 0-512 229.23-512 512s229.23 512 512 512c282.77 0 512-229.23 512-512s-229.23-512-512-512zM512-7.35c257.063 0 465.455 208.391 465.455 465.455s-208.391 465.455-465.455 465.455c-257.063 0-465.455-208.391-465.455-465.455s208.391-465.455 465.455-465.455zM434.555 162.607v295.515h-60.056v97.956h60.056v59.238c0 79.902 23.889 137.519 111.375 137.519h104.077v-97.755h-73.286c-36.699 0-45.062-24.387-45.062-49.925v-49.077h112.94l-15.415-97.956h-97.524v-295.515h-97.103z" />
<glyph unicode="&#xe646;" d="M669.538 438.413h-78.769v39.385h78.769v78.769h39.385v-78.769h78.769v-39.385h-78.769v-78.769h-39.385v78.769zM512-53.895c282.77 0 512 229.23 512 512s-229.23 512-512 512c-282.77 0-512-229.23-512-512s229.23-512 512-512zM507.777 687.912c16.729-13.836 51.671-42.938 51.671-98.265 0-53.859-30.57-79.332-61.13-103.336-9.459-9.464-20.391-19.659-20.391-35.673s10.932-24.752 18.918-31.291l26.214-20.364c32.033-26.924 61.13-51.687 61.13-101.916 0-68.394-66.233-137.547-191.417-137.547-105.514 0-156.464 50.214-156.464 104.084 0 26.204 13.105 63.313 56.059 88.796 45.111 27.661 106.262 31.269 138.994 33.474-10.19 13.11-21.832 26.951-21.832 49.488 0 12.373 3.64 19.665 7.281 28.392-8.023-0.721-16.008-1.468-23.3-1.468-77.133 0-120.802 57.521-120.802 114.274 0 33.463 15.277 70.604 46.573 97.529 41.491 34.195 90.974 40.018 130.271 40.018h149.92l-46.578-26.182-45.116-0.011zM477.223 503.029c16.718 16.772 18.181 40.045 18.181 53.155 0 52.381-31.291 133.906-91.705 133.906-18.923 0-39.298-9.469-50.956-24.042-12.368-15.282-16.019-34.91-16.019-53.838 0-48.751 28.387-129.556 90.979-129.556 18.197 0.005 37.851 8.743 49.52 20.375zM456.096 364.761c-5.824 0.742-9.464 0.742-16.729 0.742-6.555 0-45.863-1.463-76.428-11.663-16.008-5.824-62.587-23.273-62.587-74.955 0-51.671 50.214-88.775 128.094-88.775 69.873 0 106.982 33.463 106.982 78.579 0 37.13-24.010 56.763-79.332 96.071z" />
<glyph unicode="&#xe647;" d="M669.538 438.413v-78.769h39.385v78.769h78.769v39.385h-78.769v78.769h-39.385v-78.769h-78.769v-39.385h78.769zM512-53.895c-282.77 0-512 229.23-512 512s229.23 512 512 512c282.77 0 512-229.23 512-512s-229.23-512-512-512zM512-7.35c257.063 0 465.455 208.391 465.455 465.455s-208.391 465.455-465.455 465.455c-257.063 0-465.455-208.391-465.455-465.455s208.391-465.455 465.455-465.455zM507.777 687.912c16.729-13.836 51.671-42.938 51.671-98.265 0-53.859-30.57-79.332-61.13-103.336-9.459-9.464-20.391-19.659-20.391-35.673s10.932-24.752 18.918-31.291l26.214-20.364c32.033-26.924 61.13-51.687 61.13-101.916 0-68.394-66.233-137.547-191.417-137.547-105.514 0-156.464 50.214-156.464 104.084 0 26.204 13.105 63.313 56.059 88.796 45.111 27.661 106.262 31.269 138.994 33.474-10.19 13.11-21.832 26.951-21.832 49.488 0 12.373 3.64 19.665 7.281 28.392-8.023-0.721-16.008-1.468-23.3-1.468-77.133 0-120.802 57.521-120.802 114.274 0 33.463 15.277 70.604 46.573 97.529 41.491 34.195 90.974 40.018 130.271 40.018h149.92l-46.578-26.182-45.116-0.011zM477.223 503.029c16.718 16.772 18.181 40.045 18.181 53.155 0 52.381-31.291 133.906-91.705 133.906-18.923 0-39.298-9.469-50.956-24.042-12.368-15.282-16.019-34.91-16.019-53.838 0-48.751 28.387-129.556 90.979-129.556 18.197 0.005 37.851 8.743 49.52 20.375zM456.096 364.761c-5.824 0.742-9.464 0.742-16.729 0.742-6.555 0-45.863-1.463-76.428-11.663-16.008-5.824-62.587-23.273-62.587-74.955 0-51.671 50.214-88.775 128.094-88.775 69.873 0 106.982 33.463 106.982 78.579 0 37.13-24.010 56.763-79.332 96.071z" />
<glyph unicode="&#xe648;" d="M512-53.895c-282.77 0-512 229.23-512 512s229.23 512 512 512c282.77 0 512-229.23 512-512s-229.23-512-512-512zM559.095 303.065c112.736 0 189.213 104.915 189.213 245.352 0 106.162-88.113 205.073-221.993 205.073-166.611 0-250.622-121.945-250.622-223.632 0-61.573 22.819-116.352 71.813-136.768 8.027-3.345 15.219-0.108 17.556 8.959 1.598 6.286 5.463 22.141 7.142 28.734 2.352 8.979 1.448 12.125-5.036 19.955-14.113 17.025-23.12 39.022-23.12 70.213 0 90.461 66.269 171.444 172.642 171.444 94.144 0 145.908-58.725 145.908-137.189 0-103.216-44.742-190.332-111.183-190.332-36.701 0-64.138 30.971-55.353 68.951 10.52 45.348 30.966 94.309 30.966 127.045 0 29.288-15.405 53.748-47.301 53.748-37.51 0-67.631-39.622-67.631-92.672 0-33.788 11.203-56.647 11.203-56.647s-38.384-166.005-45.124-195.068c-6.112-26.466-7.027-55.554-6.167-80.137 2.568-22.053 23.929-40.012 42.461-15.819 13.028 21.258 27.035 48.104 34.283 75.011 4.322 15.922 24.678 98.398 24.678 98.398 12.198-23.726 47.808-44.62 85.665-44.62z" />
<glyph unicode="&#xe649;" d="M512-53.895c-282.77 0-512 229.23-512 512s229.23 512 512 512c282.77 0 512-229.23 512-512s-229.23-512-512-512zM512-7.35c257.063 0 465.455 208.391 465.455 465.455s-208.391 465.455-465.455 465.455c-257.063 0-465.455-208.391-465.455-465.455s208.391-465.455 465.455-465.455zM559.095 303.065c112.736 0 189.213 104.915 189.213 245.352 0 106.162-88.113 205.073-221.993 205.073-166.611 0-250.622-121.945-250.622-223.632 0-61.573 22.819-116.352 71.813-136.768 8.027-3.345 15.219-0.108 17.556 8.959 1.598 6.286 5.463 22.141 7.142 28.734 2.352 8.979 1.448 12.125-5.036 19.955-14.113 17.025-23.12 39.022-23.12 70.213 0 90.461 66.269 171.444 172.642 171.444 94.144 0 145.908-58.725 145.908-137.189 0-103.216-44.742-190.332-111.183-190.332-36.701 0-64.138 30.971-55.353 68.951 10.52 45.348 30.966 94.309 30.966 127.045 0 29.288-15.405 53.748-47.301 53.748-37.51 0-67.631-39.622-67.631-92.672 0-33.788 11.203-56.647 11.203-56.647s-38.384-166.005-45.124-195.068c-6.112-26.466-7.027-55.554-6.167-80.137 2.568-22.053 23.929-40.012 42.461-15.819 13.028 21.258 27.035 48.104 34.283 75.011 4.322 15.922 24.678 98.398 24.678 98.398 12.198-23.726 47.808-44.62 85.665-44.62z" />
<glyph unicode="&#xe64a;" d="M512-53.895c-282.77 0-512 229.23-512 512s229.23 512 512 512c282.77 0 512-229.23 512-512s-229.23-512-512-512zM700.623 655.452c-20.633 23.458-50.033 38.404-82.57 38.946-62.472 1.040-113.125-51.749-113.125-117.903 0-9.389 1.001-18.544 2.931-27.333-94.017 6.098-177.372 55.055-233.164 128.853-9.737-17.683-15.317-38.352-15.317-60.492 0-41.913 19.971-79.11 50.325-101.073-18.543 0.819-35.986 6.432-51.237 15.641-0.011-0.503-0.011-1.007-0.011-1.519 0-58.532 38.994-107.635 90.744-119.074-9.492-2.69-19.486-4.097-29.802-4.029-7.289 0.048-14.377 0.857-21.283 2.308 14.394-48.002 56.17-83.029 105.673-84.187-38.715-32.138-87.491-51.278-140.493-51.169-9.131 0.019-18.135 0.609-26.985 1.744 50.063-34.35 109.524-54.35 173.408-54.367 208.073-0.055 321.86 181.020 321.86 338.080 0 5.153-0.113 10.278-0.328 15.379 22.102 16.469 41.279 37.118 56.445 60.696-20.285-9.144-42.090-15.217-64.97-17.765 23.354 14.373 41.293 37.377 49.738 64.962-21.86-13.256-46.068-22.763-71.837-27.698z" />
<glyph unicode="&#xe64b;" d="M512-53.895c-282.77 0-512 229.23-512 512s229.23 512 512 512c282.77 0 512-229.23 512-512s-229.23-512-512-512zM512-7.35c257.063 0 465.455 208.391 465.455 465.455s-208.391 465.455-465.455 465.455c-257.063 0-465.455-208.391-465.455-465.455s208.391-465.455 465.455-465.455zM700.623 655.452c-20.633 23.458-50.033 38.404-82.57 38.946-62.472 1.040-113.125-51.749-113.125-117.903 0-9.389 1.001-18.544 2.931-27.333-94.017 6.098-177.372 55.055-233.164 128.853-9.737-17.683-15.317-38.352-15.317-60.492 0-41.913 19.971-79.11 50.325-101.073-18.543 0.819-35.986 6.432-51.237 15.641-0.011-0.503-0.011-1.007-0.011-1.519 0-58.532 38.994-107.635 90.744-119.074-9.492-2.69-19.486-4.097-29.802-4.029-7.289 0.048-14.377 0.857-21.283 2.308 14.394-48.002 56.17-83.029 105.673-84.187-38.715-32.138-87.491-51.278-140.493-51.169-9.131 0.019-18.135 0.609-26.985 1.744 50.063-34.35 109.524-54.35 173.408-54.367 208.073-0.055 321.86 181.020 321.86 338.080 0 5.153-0.113 10.278-0.328 15.379 22.102 16.469 41.279 37.118 56.445 60.696-20.285-9.144-42.090-15.217-64.97-17.765 23.354 14.373 41.293 37.377 49.738 64.962-21.86-13.256-46.068-22.763-71.837-27.698z" />
<glyph unicode="&#xe64c;" d="M167.619 285.226c-95.141 15.495-167.619 95.835-167.619 192.615 0 76.792 45.626 143.232 112.003 175.134-7.342 16.114-11.432 33.953-11.432 52.735 0 71.909 60.041 130.211 134.095 130.211 39.458 0 74.959-16.569 99.499-42.905 51.861 102.541 160.445 173.116 286.025 173.116 174.089 0 315.593-135.647 318.409-304.075 78.178-26.791 134.162-99.156 134.162-184.216 0-96.779-72.478-177.12-167.619-192.615l-33.524-2.702h-185.589v97.18h183.234c0 0 106.551 8.393 106.551 101.764 0 83.644-125.099 105.066-125.099 105.066s18.905 265.928-221.442 288.506c-159.254 14.961-266.378-188.68-266.378-188.68s-85.469 92.648-144.68 43.113c-59.211-49.535 0-128.386 0-128.386-80.148-27.66-126.169-70.981-123.489-119.619 2.802-50.858 22.256-89.732 86.502-99.987l22.27-1.778h184.507v-97.18h-186.862l-33.524 2.702zM292.571 137.18v97.524l195.048-117.932v556.789h97.524v-556.789l195.048 117.932v-97.524l-243.81-146.286-243.81 146.286z" horiz-adv-x="1073" />
<glyph unicode="&#xe64d;" d="M167.619 285.226c-95.141 15.495-167.619 95.835-167.619 192.615 0 76.792 45.626 143.232 112.003 175.134-7.342 16.114-11.432 33.953-11.432 52.735 0 71.909 60.041 130.211 134.095 130.211 39.458 0 74.959-16.569 99.499-42.905 51.861 102.541 160.445 173.116 286.025 173.116 174.089 0 315.593-135.647 318.409-304.075 78.178-26.791 134.162-99.156 134.162-184.216 0-96.779-72.478-177.12-167.619-192.615l-33.524-2.702h-185.589v48.419h212.728c64.246 10.254 128.041 88.24 128.041 150.526 0 53.747-35.685 101.906-88.813 119.78l-47.15 12.626v45.727c-2.164 129.050-135.816 258.112-271.233 258.112-95.97 0-181.106-51.729-231.597-126.986l-44.581-59.46-52.438 36.437c-12.783 13.524-35.125 23.023-54.199 23.023-55.558 0-90.958-52.017-90.958-87.033 0-8.984 1.897-17.619 5.659-25.715l16.131-42.151c-80.148-27.66-121.655-105.693-121.655-154.36 0-62.287 71.018-138.494 135.264-148.748l22.27-1.778h184.507v-48.419h-186.862l-33.524 2.702zM536.381-9.106l-243.81 146.286v48.762l219.505-134.095v621.714h48.686v-621.714l219.429 134.095v-48.762l-243.81-146.286z" horiz-adv-x="1073" />
<glyph unicode="&#xe64e;" d="M806.918-51.255h550.796c142.711 23.243 251.429 143.753 251.429 288.922 0 127.591-83.977 236.138-201.243 276.324-4.224 252.642-216.48 456.113-477.614 456.113-188.37 0-351.246-105.862-429.038-259.673-36.809 39.503-90.062 64.357-149.248 64.357-111.081 0-201.143-87.453-201.143-195.317 0-28.174 6.135-54.933 17.147-79.103-99.566-47.853-168.005-147.513-168.005-262.701 0-145.169 108.718-265.679 251.429-288.922h550.796l-290.224 326.502h147.25v329.143h291.938v-329.143h145.955l-290.224-326.502z" horiz-adv-x="1609" />
<glyph unicode="&#xe64f;" d="M950.857-51.255h406.857c142.711 23.243 251.429 143.753 251.429 288.922 0 127.591-83.977 236.138-201.243 276.324-4.224 252.642-216.48 456.113-477.614 456.113-188.37 0-351.246-105.862-429.038-259.673-36.809 39.503-90.062 64.357-149.248 64.357-111.081 0-201.143-87.453-201.143-195.317 0-28.174 6.135-54.933 17.147-79.103-99.566-47.853-168.005-147.513-168.005-262.701 0-145.169 108.718-265.679 251.429-288.922h406.857v68.060h-348.842l-33.405 2.667c-96.37 15.381-202.896 129.693-202.896 223.123 0 73.001 62.261 190.050 182.482 231.54l-24.197 63.226c-5.642 12.143-8.489 25.096-8.489 38.572 0 52.525 53.099 130.55 136.436 130.55 28.611 0 62.125-14.248 81.299-34.534l78.657-54.655 66.871 89.19c75.736 112.886 203.44 190.479 347.395 190.479 203.125 0 403.604-193.593 406.849-387.168v-68.591l70.725-18.94c79.692-26.81 133.22-99.049 133.22-179.669 0-93.43-95.691-210.408-192.061-225.789h-401.475v-68.060zM1097.143 275.248h-145.955v329.143h-291.938v-329.143h-147.25l292.571-329.143 292.571 329.143z" horiz-adv-x="1609" />
<glyph unicode="&#xe650;" d="M167.619 285.226c-95.141 15.495-167.619 95.835-167.619 192.615 0 76.792 45.626 143.232 112.003 175.134-7.342 16.114-11.432 33.953-11.432 52.735 0 71.909 60.041 130.211 134.095 130.211 39.458 0 74.959-16.569 99.499-42.905 51.861 102.541 160.445 173.116 286.025 173.116 174.089 0 315.593-135.647 318.409-304.075 78.178-26.791 134.162-99.156 134.162-184.216 0-96.779-72.478-177.12-167.619-192.615l-33.524-2.702h-185.589v97.18h183.234c0 0 106.551 8.393 106.551 101.764 0 83.644-125.099 105.066-125.099 105.066s18.905 265.928-221.442 288.506c-159.254 14.961-266.378-188.68-266.378-188.68s-85.469 92.648-144.68 43.113c-59.211-49.535 0-128.386 0-128.386-80.148-27.66-126.169-70.981-123.489-119.619 2.802-50.858 22.256-89.732 86.502-99.987l22.27-1.778h184.507v-97.18h-186.862l-33.524 2.702zM292.571 527.275v-97.524l195.048 117.932v-556.789h97.524v556.789l195.048-117.932v97.524l-243.81 146.286-243.81-146.286z" horiz-adv-x="1073" />
<glyph unicode="&#xe651;" d="M167.619 285.226c-95.141 15.495-167.619 95.835-167.619 192.615 0 76.792 45.626 143.232 112.003 175.134-7.342 16.114-11.432 33.953-11.432 52.735 0 71.909 60.041 130.211 134.095 130.211 39.458 0 74.959-16.569 99.499-42.905 51.861 102.541 160.445 173.116 286.025 173.116 174.089 0 315.593-135.647 318.409-304.075 78.178-26.791 134.162-99.156 134.162-184.216 0-96.779-72.478-177.12-167.619-192.615l-33.524-2.702h-185.589v48.419h212.728c64.246 10.254 128.041 88.24 128.041 150.526 0 53.747-35.685 101.906-88.813 119.78l-47.15 12.626v45.727c-2.164 129.050-135.816 258.112-271.233 258.112-95.97 0-181.106-51.729-231.597-126.986l-44.581-59.46-52.438 36.437c-12.783 13.524-35.125 23.023-54.199 23.023-55.558 0-90.958-52.017-90.958-87.033 0-8.984 1.897-17.619 5.659-25.715l16.131-42.151c-80.148-27.66-121.655-105.693-121.655-154.36 0-62.287 71.018-138.494 135.264-148.748l22.27-1.778h184.507v-48.419h-186.862l-33.524 2.702zM536.381 673.561l-243.81-146.286v-48.762l219.505 134.095v-621.714h48.686v621.714l219.429-134.095v48.762l-243.81 146.286z" horiz-adv-x="1073" />
<glyph unicode="&#xe652;" d="M234.667 16.836c-133.197 21.693-234.667 134.17-234.667 269.661 0 107.509 63.876 200.525 156.804 245.188-10.278 22.559-16.004 47.534-16.004 73.83 0 100.673 84.058 182.296 187.733 182.296 55.241 0 104.943-23.197 139.298-60.066 72.606 143.558 224.623 242.362 400.435 242.362 243.725 0 441.83-189.906 445.773-425.706 109.449-37.507 187.827-138.818 187.827-257.903 0-135.491-101.47-247.968-234.667-269.661l-46.933-3.783h-938.667l-46.933 3.783zM477.867 321.572h136.225v-307.2h272.475v307.2h137.433l-273.067 307.2-273.067-307.2z" horiz-adv-x="1502" />
<glyph unicode="&#xe653;" d="M234.667 16.836c-133.197 21.693-234.667 134.17-234.667 269.661 0 107.509 63.876 200.525 156.804 245.188-10.278 22.559-16.004 47.534-16.004 73.83 0 100.673 84.058 182.296 187.733 182.296 55.241 0 104.943-23.197 139.298-60.066 72.606 143.558 224.623 242.362 400.435 242.362 243.725 0 441.83-189.906 445.773-425.706 109.449-37.507 187.827-138.818 187.827-257.903 0-135.491-101.47-247.968-234.667-269.661l-46.933-3.783h-938.667l-46.933 3.783zM955.733 80.359h306.444c89.945 14.356 179.257 123.535 179.257 210.737 0 75.246-49.959 142.669-124.338 167.691l-66.010 17.677v64.018c-3.029 180.669-190.143 361.356-379.726 361.356-134.358 0-253.549-72.42-324.236-177.78l-62.413-83.244-73.413 51.011c-17.896 18.934-49.175 32.232-75.879 32.232-77.781 0-127.341-72.824-127.341-121.847 0-12.578 2.656-24.667 7.923-36.001l22.584-59.011c-112.207-38.724-170.317-147.97-170.317-216.104 0-87.201 99.425-193.892 189.37-208.248l31.178-2.489h257.319v-65.987h409.6v65.987zM477.867 321.572h136.225v-307.2h272.475v307.2h137.433l-273.067 307.2-273.067-307.2z" horiz-adv-x="1502" />
<glyph unicode="&#xe654;" d="M1220.267 13.053l46.933 3.783c133.197 21.693 234.667 134.17 234.667 269.661 0 119.085-78.379 220.395-187.827 257.903-3.942 235.799-202.048 425.706-445.773 425.706-175.812 0-327.829-98.804-400.435-242.362-34.355 36.869-84.058 60.066-139.298 60.066-103.676 0-187.733-81.623-187.733-182.296 0-26.296 5.726-51.271 16.004-73.83-92.928-44.662-156.804-137.679-156.804-245.188 0-135.491 101.47-247.968 234.667-269.661l46.933-3.783h464.625l9.416 1.318 464.625-1.318z" horiz-adv-x="1502" />
<glyph unicode="&#xe655;" d="M1220.267 13.053l-464.625 1.318-9.416-1.318h-464.625l-46.933 3.783c-133.197 21.693-234.667 134.17-234.667 269.661 0 107.509 63.876 200.525 156.804 245.188-10.278 22.559-16.004 47.534-16.004 73.83 0 100.673 84.058 182.296 187.733 182.296 55.241 0 104.943-23.197 139.298-60.066 72.606 143.558 224.623 242.362 400.435 242.362 243.725 0 441.83-189.906 445.773-425.706 109.449-37.507 187.827-138.818 187.827-257.903 0-135.491-101.47-247.968-234.667-269.661l-46.933-3.783zM755.641 80.284v0.555h502.619c89.945 14.356 179.257 123.535 179.257 210.737 0 75.246-49.959 142.669-124.338 167.691l-66.010 17.677v64.018c-3.029 180.669-190.143 361.356-379.726 361.356-134.358 0-253.549-72.42-324.236-177.78l-62.413-83.244-73.413 51.011c-17.896 18.934-49.175 32.232-75.879 32.232-77.781 0-127.341-72.824-127.341-121.847 0-12.578 2.656-24.667 7.923-36.001l22.584-59.011c-112.207-38.724-170.317-147.97-170.317-216.104 0-87.201 99.425-193.892 189.37-208.248l31.178-2.489h461.328v-0.555h9.416z" horiz-adv-x="1502" />
<glyph unicode="&#xe656;" d="M524.56 970.105v0c34.141 0 68.282-44.125 68.282-66.463v-957.537h-20.569c0 0-23.609 108.936-91.429 108.936s-433.444 0-433.444 0c-26.177 0-47.4 21.326-47.4 47.634v759.641c0 107.789 107.789 107.789 107.789 107.789h416.77zM662.525 970.105v0c-34.841 0-69.682-44.037-69.682-66.287v-957.713h20.569c0 0 23.609 108.936 91.429 108.936s433.444 0 433.444 0c26.177 0 47.4 21.326 47.4 47.634v759.641c0 107.789-107.789 107.789-107.789 107.789h-415.37zM1080.491 845.028v-662.613c0.030-11.74-13.892-25.229-25.485-25.229 0 0-298.19 2.374-338.681 2.374s-70.349-49.397-70.349-49.397v722.587c0 17.639 14.411 31.939 31.908 31.939l376.852-2.374c11.818 0 25.725-5.533 25.755-17.287zM107.029 845.028v-662.613c-0.030-11.74 13.892-25.229 25.485-25.229 0 0 298.19 2.374 338.681 2.374s70.349-49.397 70.349-49.397v722.587c0 17.639-14.411 31.939-31.908 31.939l-376.852-2.374c-11.818 0-25.725-5.533-25.755-17.287z" horiz-adv-x="1186" />
<glyph unicode="&#xe657;" d="M524.56 970.105c34.141 0 68.282-44.125 68.282-66.463v-957.537h-20.569c0 0-23.609 108.936-91.429 108.936s-433.444 0-433.444 0c-26.177 0-47.4 21.326-47.4 47.634v759.641c0 107.789 107.789 107.789 107.789 107.789h416.77zM662.525 970.105c-34.841 0-69.682-44.037-69.682-66.287v-957.713h20.569c0 0 23.609 108.936 91.429 108.936s433.444 0 433.444 0c26.177 0 47.4 21.326 47.4 47.634v759.641c0 107.789-107.789 107.789-107.789 107.789h-415.37zM79.778 916.21c-13.208 0-23.943-10.862-23.977-24.295l-1.906-763.183c-0.034-13.418 10.718-24.295 23.675-24.295 0 0 362.539 0 407.793 0s80.531-50.544 80.531-50.544v825.814c0 20.159-16.107 36.502-35.662 36.502h-450.455zM1105.906 916.21c13.208 0 23.943-10.862 23.977-24.295l1.906-763.183c0.034-13.418-10.718-24.295-23.675-24.295 0 0-362.539 0-407.793 0s-80.531-50.544-80.531-50.544v825.814c0 20.159 16.107 36.502 35.662 36.502h450.455z" horiz-adv-x="1186" />
<glyph unicode="&#xe658;" d="M0 881.062v-934.957l279.273 267.13 279.273-267.13v934.957c0 89.043-93.091 89.043-93.091 89.043h-372.364c0 0-93.091 0-93.091-89.043z" horiz-adv-x="559" />
<glyph unicode="&#xe659;" d="M0 881.062c0 89.043 93.091 89.043 93.091 89.043h372.364c0 0 93.091 0 93.091-89.043v-934.957l-279.273 267.13-279.273-267.13v934.957zM46.545 53.16l232.727 217.6 232.727-217.6v823.604c0 25.845-21.209 46.796-46.331 46.796h-372.792c-25.588 0-46.331-20.657-46.331-46.796v-823.604z" horiz-adv-x="559" />
<glyph unicode="&#xe65a;" d="M682.667 872.581h-292.571v-91.255c0-30.589-32.765-55.030-73.183-55.030h-48.681c-40.537 0-73.183 24.638-73.183 55.030l-0.024 91.255h-195.024v-877.714c0-48.762 53.638-48.762 53.638-48.762h970.362c0 0 48.762 0 48.762 48.762v877.714h-195.048v-91.255c0-30.589-32.765-55.030-73.183-55.030h-48.681c-40.537 0-73.183 24.638-73.183 55.030v91.255zM780.19 970.105c26.876 0 48.762-21.811 48.762-48.716v-97.616c0-26.909-21.831-48.716-48.762-48.716-26.876 0-48.762 21.811-48.762 48.716v97.616c0 26.909 21.831 48.716 48.762 48.716zM243.81 933.418c0 20.393 16.383 36.687 36.592 36.687h24.34c20.268 0 36.592-16.425 36.592-36.687v-121.674c0-20.393-16.383-36.687-36.592-36.687h-24.34c-20.268 0-36.592 16.425-36.592 36.687v121.674zM97.524 677.534h877.714v-48.762h-877.714v48.762zM292.571 416.9c35.949 3.032 61.021 8.098 75.217 15.2s24.796 23.896 31.801 50.386h39.268v-390.095h-47.521v291.477h-98.765v33.032zM756.5 421.757c15.793-31.293 23.69-74.165 23.69-128.617 0-51.624-7.156-94.319-21.469-128.087-20.729-48.442-54.618-72.662-101.67-72.662-42.445 0-74.031 19.801-94.76 59.403-17.274 33.061-25.911 77.435-25.911 133.126 0 43.138 5.182 80.176 15.547 111.115 19.413 57.635 54.536 86.452 105.371 86.452 45.735 0 78.802-20.243 99.202-60.729 0 0-20.4 40.486 0 0v0zM711.159 172.837c13.513 21.123 20.27 60.473 20.27 118.051 0 41.565-4.884 75.762-14.653 102.592s-28.736 40.245-56.902 40.245c-25.887 0-44.814-12.733-56.78-38.2s-17.95-62.986-17.95-112.557c0-37.306 3.826-67.287 11.478-89.943 11.722-34.581 31.748-51.871 60.077-51.871 22.794 0 40.947 10.561 54.46 31.685 0 0-13.513-21.123 0 0v0z" horiz-adv-x="1073" />
<glyph unicode="&#xe65b;" d="M280.401 970.105c-20.209 0-36.592-16.294-36.592-36.687v-121.674c0-20.262 16.323-36.687 36.592-36.687h24.34c20.209 0 36.592 16.294 36.592 36.687v121.674c0 20.262-16.323 36.687-36.592 36.687h-24.34zM780.19 970.105c-26.93 0-48.762-21.807-48.762-48.716v-97.616c0-26.905 21.886-48.716 48.762-48.716 26.93 0 48.762 21.807 48.762 48.716v97.616c0 26.905-21.886 48.716-48.762 48.716v0zM97.524 677.534v-48.762h877.714v48.762h-877.714zM390.095 872.581v-48.762h292.571v48.762h-292.571zM877.714 823.819h146.286v-828.952h-975.238v828.952h146.262v48.762h-195.024v-877.714c0-48.762 53.638-48.762 53.638-48.762h970.362c0 0 48.762 0 48.762 48.762v877.714h-195.048v-48.762zM292.571 416.9c35.949 3.032 61.021 8.098 75.217 15.2s24.796 23.896 31.801 50.386h39.268v-390.095h-47.521v291.477h-98.765v33.032zM756.5 421.757c15.793-31.293 23.69-74.165 23.69-128.617 0-51.624-7.156-94.319-21.469-128.087-20.729-48.442-54.618-72.662-101.67-72.662-42.445 0-74.031 19.801-94.76 59.403-17.274 33.061-25.911 77.435-25.911 133.126 0 43.138 5.182 80.176 15.547 111.115 19.413 57.635 54.536 86.452 105.371 86.452 45.735 0 78.802-20.243 99.202-60.729 0 0-20.4 40.486 0 0v0zM711.159 172.837c13.513 21.123 20.27 60.473 20.27 118.051 0 41.565-4.884 75.762-14.653 102.592s-28.736 40.245-56.902 40.245c-25.887 0-44.814-12.733-56.78-38.2s-17.95-62.986-17.95-112.557c0-37.306 3.826-67.287 11.478-89.943 11.722-34.581 31.748-51.871 60.077-51.871 22.794 0 40.947 10.561 54.46 31.685 0 0-13.513-21.123 0 0v0z" horiz-adv-x="1073" />
<glyph unicode="&#xe65c;" d="M605.091 873.222v-87.107c0-29.011 31.163-52.529 69.857-52.529h46.468c38.581 0 69.857 23.33 69.857 52.529v87.107h156.915c16.137 0 29.267-13.515 29.267-30.186v-823.992c0-16.649-13.097-30.186-29.253-30.186h-918.948c-16.175 0-29.253 13.515-29.253 30.186v823.992c0 16.649 13.103 30.186 29.267 30.186h156.915v-87.107c0-29.011 31.163-52.529 69.857-52.529h46.468c38.581 0 69.857 23.33 69.857 52.529v87.107h232.727zM46.545 175.040v-122.234c0-9.611 8.947-17.403 20.006-17.403h119.63v139.636h-139.636zM232.727 175.040v-139.636h139.636v139.636h-139.636zM418.909 175.040v-139.636h139.636v139.636h-139.636zM605.091 175.040v-139.636h139.636v139.636h-139.636zM791.273 175.040v-139.636h119.63c11.049 0 20.006 7.807 20.006 17.403v122.234h-139.636zM46.545 361.222v-139.636h139.636v139.636h-139.636zM232.727 361.222v-139.636h139.636v139.636h-139.636zM605.091 361.222v-139.636h139.636v139.636h-139.636zM791.273 361.222v-139.636h139.636v139.636h-139.636zM46.545 547.404v-139.636h139.636v139.636h-139.636zM232.727 547.404v-139.636h139.636v139.636h-139.636zM418.909 547.404v-139.636h139.636v139.636h-139.636zM605.091 547.404v-139.636h139.636v139.636h-139.636zM791.273 547.404v-139.636h139.636v139.636h-139.636zM267.656 966.313c-19.29 0-34.928-15.554-34.928-35.019v-116.143c0-19.341 15.581-35.019 34.928-35.019h23.234c19.29 0 34.928 15.554 34.928 35.019v116.143c0 19.341-15.581 35.019-34.928 35.019h-23.234zM698.182 966.313c-25.706 0-46.545-20.815-46.545-46.501v-93.179c0-25.682 20.891-46.501 46.545-46.501 25.706 0 46.545 20.815 46.545 46.501v93.179c0 25.682-20.891 46.501-46.545 46.501v0z" horiz-adv-x="977" />
<glyph unicode="&#xe65d;" d="M630.022 823.819h-239.286l0.252 48.762h239.286l-0.252-48.762zM193.611 823.819h-144.849v-243.81h926.476v243.81h-146.187l0.252 48.762h164.036c16.905 0 30.661-14.158 30.661-31.623v-863.229c0-17.441-13.721-31.623-30.646-31.623h-962.707c-16.945 0-30.646 14.158-30.646 31.623v863.229c0 17.441 13.727 31.623 30.661 31.623h163.202l-0.252-48.762zM48.762 141.153v-128.054c0-10.069 9.373-18.231 20.959-18.231h125.327v146.286h-146.286zM243.81 141.153v-146.286h146.286v146.286h-146.286zM438.857 141.153v-146.286h146.286v146.286h-146.286zM633.905 141.153v-146.286h146.286v146.286h-146.286zM828.952 141.153v-146.286h125.327c11.575 0 20.959 8.178 20.959 18.231v128.054h-146.286zM48.762 336.2v-146.286h146.286v146.286h-146.286zM243.81 336.2v-146.286h146.286v146.286h-146.286zM633.905 336.2v-146.286h146.286v146.286h-146.286zM828.952 336.2v-146.286h146.286v146.286h-146.286zM48.762 531.248v-146.286h146.286v146.286h-146.286zM243.81 531.248v-146.286h146.286v146.286h-146.286zM438.857 531.248v-146.286h146.286v146.286h-146.286zM633.905 531.248v-146.286h146.286v146.286h-146.286zM828.952 531.248v-146.286h146.286v146.286h-146.286zM280.401 970.105c-20.209 0-36.592-16.294-36.592-36.687v-121.674c0-20.262 16.323-36.687 36.592-36.687h24.34c20.209 0 36.592 16.294 36.592 36.687v121.674c0 20.262-16.323 36.687-36.592 36.687h-24.34zM731.429 970.105c-26.93 0-48.762-21.807-48.762-48.716v-97.616c0-26.905 21.886-48.716 48.762-48.716 26.93 0 48.762 21.807 48.762 48.716v97.616c0 26.905-21.886 48.716-48.762 48.716v0z" />
<glyph unicode="&#xe65e;" d="M0 842.105l704-576 704 576v128h-1408v-128zM0 58.152l345.758 384.109-345.758 311.648v-695.758zM1408 48.761l-355.469 392.164 355.469 308.344v-700.508zM704 154.675l-288 239.43-416-448h1408l-416.645 448-287.355-239.43z" horiz-adv-x="1408" />
<glyph unicode="&#xe65f;" d="M0 842.105v128h1408v-128l-704-576-704 576zM64 883.074l640-530.312 640 530.312v23.031h-1280v-23.031zM0 58.152l64 62.945v587.867l-64 44.945v-695.758zM1408 48.761l-64 58.086v597.727l64 44.695v-700.508zM1243.357 15.093h-1085.858l315.843 326.913-57.342 52.098-416-448h1408l-416.645 448-57.314-52.098 309.316-326.913z" horiz-adv-x="1408" />
<glyph unicode="&#xe660;" d="M0 970.105h1501.867v-1024h-1501.867v1024zM136.533 833.572v-68.267h546.133v68.267h-546.133zM136.533 697.038v-68.267h546.133v68.267h-546.133zM819.2 287.438v-68.267h546.133v68.267h-546.133zM819.2 150.905v-68.267h546.133v68.267h-546.133zM1160.533 833.572v-204.8h204.8v204.8h-204.8z" horiz-adv-x="1502" />
<glyph unicode="&#xe661;" d="M0 970.105h1501.867v-1024h-1501.867v1024zM68.267 901.838v-887.467h1365.333v887.467h-1365.333zM136.533 833.572v-68.267h546.133v68.267h-546.133zM136.533 697.038v-68.267h546.133v68.267h-546.133zM819.2 287.438v-68.267h546.133v68.267h-546.133zM819.2 150.905v-68.267h546.133v68.267h-546.133zM1160.533 833.572v-204.8h204.8v204.8h-204.8z" horiz-adv-x="1502" />
<glyph unicode="&#xe662;" d="M501.565 9.098c15.518 11.9 32.788 25.633 51.375 41.026 53.089 43.967 106.178 92.489 155.79 144.22 110.775 115.505 188.223 229.931 217.415 338.59 8.261 30.747 12.521 60.762 12.521 89.952 0 289.755-264.534 413.655-469.538 195.345-204.256 218.31-469.129 86.751-469.129-195.345 0-29.19 4.26-59.205 12.521-89.952 29.193-108.658 106.641-223.084 217.415-338.59 49.612-51.73 102.7-100.253 155.79-144.22 18.587-15.393 35.857-29.126 51.375-41.026 9.359-7.177 16.090-12.174 19.757-14.817l12.475-8.994 12.475 8.994c3.666 2.643 10.397 7.64 19.757 14.817z" horiz-adv-x="939" />
<glyph unicode="&#xe663;" d="M523.373 10.291c16.193 12.418 34.214 26.747 53.609 42.81 55.398 45.879 110.795 96.511 162.563 150.49 115.591 120.527 196.406 239.928 226.868 353.311 8.62 32.084 13.065 63.403 13.065 93.863 0 302.353-276.035 431.64-489.952 203.838-213.137 227.802-489.526 90.523-489.526-203.838 0-30.46 4.446-61.779 13.065-93.863 30.462-113.382 111.277-232.784 226.868-353.311 51.769-53.979 107.166-104.611 162.563-150.49 19.395-16.062 37.416-30.392 53.609-42.81 9.766-7.49 16.79-12.704 20.616-15.462l13.018-9.385 13.018 9.385c3.826 2.758 10.849 7.972 20.616 15.462zM430.894 87.391c-54.168 44.86-108.336 94.369-158.828 147.017-110.869 115.603-187.888 229.397-216.004 334.046-7.643 28.447-11.541 55.909-11.541 82.311 0 263.27 241.617 376.476 428.217 155.73l17.001-20.112 17.001 20.112c186.6 220.746 428.217 107.54 428.217-155.73 0-26.403-3.898-53.864-11.541-82.311-28.116-104.649-105.135-218.442-216.004-334.046-50.492-52.648-104.66-102.157-158.828-147.017-18.953-15.696-58.845-48.332-58.845-48.332s-47.435 38.882-58.845 48.332z" horiz-adv-x="979" />
<glyph unicode="&#xe664;" d="M884.364 970.105v-1024h-744.727v302.545h93.091v-209.455h558.545v837.818h-558.545v-209.455h-93.091v302.545h744.727zM512 690.832h-93.091l116.364-186.182h-535.273v-93.091h535.273l-116.364-186.182h93.091l139.636 232.727-139.636 232.727zM-69.818 15.923h1024v744.727h-302.545v-93.091h209.455v-558.545h-837.818v558.545h209.455v93.091h-302.545v-744.727zM209.455 388.287v93.091l186.182-116.364v535.273h93.091v-535.273l186.182 116.364v-93.091l-232.727-139.636-232.727 139.636z" horiz-adv-x="884" />
<glyph unicode="&#xe665;" d="M884.364 970.105v-1024h-698.182v302.545h46.545v-256h605.091v930.909h-605.091v-256h-46.545v302.545h698.182zM651.636 458.105l-139.636-232.727h-46.545l128 209.527h-593.455v46.473h593.455l-128 209.455h46.545l139.636-232.727zM-69.818 15.923h1024v698.182h-302.545v-46.545h256v-605.091h-930.909v605.091h256v46.545h-302.545v-698.182zM442.182 248.65l232.727 139.636v46.545l-209.527-128v593.455h-46.473v-593.455l-209.455 128v-46.545l232.727-139.636z" horiz-adv-x="884" />
<glyph unicode="&#xe666;" d="M0 970.105v-1024h744.727v302.545h-93.091v-209.455h-558.545v837.818h558.545v-209.455h93.091v302.545h-744.727zM884.364 690.832h-93.091l116.364-186.182h-535.273v-93.091h535.273l-116.364-186.182h93.091l139.636 232.727-139.636 232.727zM0-53.895h1024v744.727h-302.545v-93.091h209.455v-558.545h-837.818v558.545h209.455v93.091h-302.545v-744.727zM279.273 830.469v-93.091l186.182 116.364v-535.273h93.091v535.273l186.182-116.364v93.091l-232.727 139.636-232.727-139.636z" />
<glyph unicode="&#xe667;" d="M0 970.105v-1024h698.182v302.545h-46.545v-256h-605.091v930.909h605.091v-256h46.545v302.545h-698.182zM1024 458.105l-139.636 232.727h-46.545l128-209.527h-593.455v-46.473h593.455l-128-209.455h46.545l139.636 232.727zM0-53.895h1024v698.182h-302.545v-46.545h256v-605.091h-930.909v605.091h256v46.545h-302.545v-698.182zM512 970.105l-232.727-139.636v-46.545l209.527 128v-593.455h46.473v593.455l209.455-128v46.545l-232.727 139.636z" />
<glyph unicode="&#xe668;" d="M409.426 359.804l-2.335-118.381 114.3 30.905 422.802 541.161-111.964 87.476-422.802-541.161zM942.445 965.11c-19.015 14.856-66.48-8.163-66.48-8.163l-29.159-37.321 111.964-87.476 29.159 37.321c0 0 10.95 51.548-8.163 66.48l-37.321 29.159zM0-52.945h884.364v698.182l-93.091-117.314v-487.777h-698.182v698.182h535.273l69.818 93.091h-698.182v-884.364z" />
<glyph unicode="&#xe669;" d="M796.043 902.118l-404.419-517.633-2.234-113.234 109.33 29.561 404.419 517.633-35.699 27.891-395.989-506.843-40.225-14.694 4.526 42.585 395.989 506.843-35.699 27.891zM901.47 963.474c-18.188 14.21-63.59-7.808-63.59-7.808l-27.891-35.699 107.096-83.673 27.891 35.699c0 0 10.474 49.307-7.808 63.59l-35.699 27.891zM0 835.595v-845.913h845.913v667.826l-44.522-44.522v-578.783h-756.87v756.87h578.783l44.522 44.522h-667.826z" horiz-adv-x="979" />
<glyph unicode="&#xe66a;" d="M884.364 365.014h-744.727v-93.091h-88.436c0 0-51.2 0-51.2 51.717v268.929c0 0 0 51.717 51.2 51.717h921.6c51.2 0 51.2-51.717 51.2-51.717v-268.929c0-51.717-51.2-51.717-51.2-51.717h-88.436v93.091zM163.391 504.65c0 0-23.755 0-23.755-23.273s23.755-23.273 23.755-23.273h697.218c0 0 23.755 0 23.755 23.273s-23.755 23.273-23.755 23.273h-697.218zM186.182 318.469h651.636v-372.364h-651.636v372.364zM186.182 690.832v279.273h651.636v-279.273h-651.636zM279.273 85.741h465.455v46.545h-465.455v-46.545zM279.273 225.378v-46.545h465.455v46.545h-465.455z" />
<glyph unicode="&#xe66b;" d="M884.364 318.469v-46.545h88.436c0 0 51.2 0 51.2 51.717v268.929c0 0 0 51.717-51.2 51.717h-921.6c-51.2 0-51.2-51.717-51.2-51.717v-268.929c0-51.717 51.2-51.717 51.2-51.717h88.436v46.545h-93.091v279.273h930.909v-279.273h-93.091zM163.391 504.65h697.218c0 0 23.755 0 23.755-23.273s-23.755-23.273-23.755-23.273h-697.218c0 0-23.755 0-23.755 23.273s23.755 23.273 23.755 23.273zM186.182 318.469h651.636v-372.364h-651.636v372.364zM279.273 85.741h465.455v46.545h-465.455v-46.545zM279.273 225.378v-46.545h465.455v46.545h-465.455zM232.727 271.923v-279.273h558.545v279.273h-558.545zM791.273 923.56h-558.545v-232.727h-46.545v279.273h651.636v-279.273h-46.545v232.727z" />
<glyph unicode="&#xe66c;" d="M720.397 348.446l293.398-293.398c5.197-5.197 5.45-14.25 0.022-19.678l-79.081-79.081c-5.586-5.586-14.238-5.418-19.678 0.022l-293.428 293.377c-64.068-44.664-141.972-70.855-225.993-70.855-218.504 0-395.636 177.132-395.636 395.636s177.132 395.636 395.636 395.636c218.504 0 395.636-177.132 395.636-395.636 0-84.034-26.2-161.949-70.876-226.023zM395.636 271.923c167.091 0 302.545 135.454 302.545 302.545s-135.454 302.545-302.545 302.545c-167.091 0-302.545-135.454-302.545-302.545s135.454-302.545 302.545-302.545z" />
<glyph unicode="&#xe66d;" d="M621.629 249.688c-64.068-44.664-141.972-70.855-225.993-70.855-218.504 0-395.636 177.132-395.636 395.636s177.132 395.636 395.636 395.636c218.504 0 395.636-177.132 395.636-395.636 0-100.89-37.764-192.96-99.928-262.846l295.28-295.28c2.574-2.574 2.792-7.031 0.177-9.645l-56.357-56.357c-2.544-2.544-6.933-2.535-9.645 0.177l-299.17 299.17zM395.636 225.378c192.798 0 349.091 156.293 349.091 349.091s-156.293 349.091-349.091 349.091c-192.798 0-349.091-156.293-349.091-349.091s156.293-349.091 349.091-349.091v0z" />
<glyph unicode="&#xe66e;" d="M0-53.895h744.727v744.727h-209.455v-93.091h116.364v-558.545h-558.545v558.545h116.364v93.091h-209.455v-744.727zM139.636 830.469v-93.091l186.182 116.364v-535.273h93.091v535.273l186.182-116.364v93.091l-232.727 139.636-232.727-139.636z" horiz-adv-x="745" />
<glyph unicode="&#xe66f;" d="M0 690.832v-744.727h744.727v744.727h-209.455v-46.545h162.909v-651.636h-651.636v651.636h162.909v46.545h-209.455zM372.364 970.105l-232.727-139.636v-46.545l209.527 128v-593.455h46.473v593.455l209.455-128v46.545l-232.727 139.636z" horiz-adv-x="745" />
<glyph unicode="&#xe670;" d="M511.298 172.484l-316.433-226.379 109.374 372.944-304.238 252.545 370.028 3.184 141.269 395.327 137.361-398.511h375.341l-305.643-255.002 109.374-370.487-316.433 226.379z" />
<glyph unicode="&#xe671;" d="M511.298 172.484l316.433-226.379-109.374 370.487 305.643 255.002h-375.341l-137.361 398.511-141.269-395.327-370.028-3.184 304.238-252.545-109.374-372.944 316.433 226.379zM511.298 242.837l-246.615-203.107 93.153 290.253-241.472 195.6 288.040 3.571 106.894 301.849 103.745-305.42h292.594l-246.301-195.599 96.578-290.253-246.615 203.107z" />
<glyph unicode="&#xe672;" d="M973.82 921.134c12.35-0.893 23.57-11.873 24.482-24.482l31.64-437.567-502.517-502.517c-8.758-8.758-23.444-8.735-32.515 0.336l-460.837 460.837c-9.064 9.064-9.222 23.629-0.336 32.515l502.517 502.517 437.567-31.64zM666.756 589.588c36.354-36.354 94.641-37.009 130.188-1.463s34.891 93.833-1.463 130.188c-36.354 36.354-94.641 37.009-130.188 1.463s-34.891-93.833 1.463-130.188v0zM611.052 1057.056c9.364 8.101 25.062 8.271 34.623 0l331.779-287.033v-710.667c0-12.386-10.4-22.754-23.23-22.754h-651.722c-12.818 0-23.23 10.187-23.23 22.754v710.667l331.779 287.033zM628.364 605.491c51.413 0 93.091 40.752 93.091 91.022s-41.678 91.022-93.091 91.022c-51.413 0-93.091-40.752-93.091-91.022s41.678-91.022 93.091-91.022v0z" horiz-adv-x="1071" />
<glyph unicode="&#xe673;" d="M973.82 921.134c12.35-0.893 23.57-11.873 24.482-24.482l31.64-437.567-502.517-502.517c-8.758-8.758-23.444-8.735-32.515 0.336l-460.837 460.837c-9.064 9.064-9.222 23.629-0.336 32.515l502.517 502.517 437.567-31.64zM951.594 849.259c-1.198 12.702-12.627 23.985-25.167 25.167l-367.998 34.699-459.59-459.59c-8.892-8.892-8.673-23.526 0.411-32.61l394.843-394.843c9.119-9.119 23.604-9.417 32.61-0.411l459.59 459.59-34.699 367.998zM666.756 589.588v0c-36.354 36.354-37.009 94.641-1.463 130.188s93.833 34.891 130.188-1.463c36.354-36.354 37.009-94.641 1.463-130.188s-93.833-34.891-130.188 1.463zM698.937 621.769c18.177-18.177 47.321-18.505 65.094-0.731s17.446 46.917-0.731 65.094c-18.177 18.177-47.321 18.505-65.094 0.731s-17.446-46.917 0.731-65.094v0zM611.052 1057.056c9.364 8.101 25.062 8.271 34.623 0l331.779-287.033v-710.667c0-12.386-10.4-22.754-23.23-22.754h-651.722c-12.818 0-23.23 10.187-23.23 22.754v710.667l331.779 287.033zM646.16 990.517c-9.829 8.135-25.888 8.031-35.592 0l-284.749-235.678v-649.958c0-12.575 10.502-22.768 23.35-22.768h558.392c12.896 0 23.35 10.032 23.35 22.768v649.958l-284.749 235.678zM628.364 605.491v0c-51.413 0-93.091 40.752-93.091 91.022s41.678 91.022 93.091 91.022c51.413 0 93.091-40.752 93.091-91.022s-41.678-91.022-93.091-91.022zM628.364 651.002c25.706 0 46.545 20.376 46.545 45.511s-20.839 45.511-46.545 45.511c-25.706 0-46.545-20.376-46.545-45.511s20.839-45.511 46.545-45.511v0z" horiz-adv-x="1071" />
<glyph unicode="&#xe674;" d="M48.11 896.652c0.893 12.35 11.873 23.57 24.482 24.482l437.567 31.64 502.517-502.517c8.758-8.758 8.735-23.444-0.336-32.515l-460.837-460.837c-9.064-9.064-23.629-9.222-32.515-0.336l-502.517 502.517 31.64 437.567zM379.656 589.588c36.354 36.354 37.009 94.641 1.463 130.188s-93.833 34.891-130.188-1.463c-36.354-36.354-37.009-94.641-1.463-130.188s93.833-34.891 130.188 1.463v0zM400.737 1057.056c9.364 8.101 25.062 8.271 34.623 0l331.779-287.033v-710.667c0-12.386-10.4-22.754-23.23-22.754h-651.722c-12.818 0-23.23 10.187-23.23 22.754v710.667l331.779 287.033zM418.048 605.491c51.413 0 93.091 40.752 93.091 91.022s-41.678 91.022-93.091 91.022c-51.413 0-93.091-40.752-93.091-91.022s41.678-91.022 93.091-91.022v0z" />
<glyph unicode="&#xe675;" d="M48.11 896.652c0.893 12.35 11.873 23.57 24.482 24.482l437.567 31.64 502.517-502.517c8.758-8.758 8.735-23.444-0.336-32.515l-460.837-460.837c-9.064-9.064-23.629-9.222-32.515-0.336l-502.517 502.517 31.64 437.567zM119.985 874.427c-12.702-1.198-23.985-12.627-25.167-25.167l-34.699-367.998 459.59-459.59c8.892-8.892 23.526-8.673 32.61 0.411l394.843 394.843c9.119 9.119 9.417 23.604 0.411 32.61l-459.59 459.59-367.998-34.699zM379.656 589.588v0c-36.354-36.354-94.641-37.009-130.188-1.463s-34.891 93.833 1.463 130.188c36.354 36.354 94.641 37.009 130.188 1.463s34.891-93.833-1.463-130.188zM347.475 621.769c18.177 18.177 18.505 47.321 0.731 65.094s-46.917 17.446-65.094-0.731c-18.177-18.177-18.505-47.321-0.731-65.094s46.917-17.446 65.094 0.731v0zM400.737 1057.056c9.364 8.101 25.062 8.271 34.623 0l331.779-287.033v-710.667c0-12.386-10.4-22.754-23.23-22.754h-651.722c-12.818 0-23.23 10.187-23.23 22.754v710.667l331.779 287.033zM435.844 990.517c-9.829 8.135-25.888 8.031-35.592 0l-284.749-235.678v-649.958c0-12.575 10.502-22.768 23.35-22.768h558.392c12.896 0 23.35 10.032 23.35 22.768v649.958l-284.749 235.678zM418.048 605.491v0c-51.413 0-93.091 40.752-93.091 91.022s41.678 91.022 93.091 91.022c51.413 0 93.091-40.752 93.091-91.022s-41.678-91.022-93.091-91.022zM418.048 651.002c25.706 0 46.545 20.376 46.545 45.511s-20.839 45.511-46.545 45.511c-25.706 0-46.545-20.376-46.545-45.511s20.839-45.511 46.545-45.511v0z" />
<glyph unicode="&#xe676;" d="M372.364 877.014h84.628c0 0 101.554 0 101.554-97.984v-734.934c0-97.99-101.554-97.99-101.554-97.99h-355.438c0 0-101.554 0.801-101.554 97.99v734.934c0 97.984 101.554 97.984 101.554 97.984h83.242v23.148c1.386 0 1.386 69.943 47.932 69.943h93.091c46.545 0 46.545-69.943 46.545-69.943v-23.148zM134.465 783.919c0 0-41.374 1.355-41.374-43.807v-657.108c0-43.807 41.374-43.807 41.374-43.807h289.616c0 0 41.374 0 41.374 43.807v657.108c0 43.807-41.374 43.807-41.374 43.807h-289.616zM277.327 644.287l-91.145-301.625 91.145 28.687v-239.062l95.037 310.805-95.037-12.24v213.435z" horiz-adv-x="559" />
<glyph unicode="&#xe677;" d="M456.992 877.014v0c0 0 101.554 0 101.554-97.984v-734.934c0-97.99-101.554-97.99-101.554-97.99h-355.438c0 0-101.554 0.801-101.554 97.99v734.934c0 97.984 101.554 97.984 101.554 97.984h355.438zM460.283 830.464h-362.020c0 0-51.717 1.525-51.717-49.283v-739.247c0-49.283 51.717-49.283 51.717-49.283h362.020c0 0 51.717 0 51.717 49.283v739.247c0 49.283-51.717 49.283-51.717 49.283v0zM184.795 900.162h187.568c0 0 0 69.943-46.545 69.943h-93.091c-46.545 0-46.545-69.943-47.932-69.943zM277.327 690.832l-91.145-301.625 91.145 28.687v-239.062l95.037 310.805-95.037-12.24v213.435z" horiz-adv-x="559" />
<glyph unicode="&#xe678;" d="M372.364 877.014h84.628c0 0 101.554 0 101.554-97.984v-734.934c0-97.99-101.554-97.99-101.554-97.99h-355.438c0 0-101.554 0.801-101.554 97.99v734.934c0 97.984 101.554 97.984 101.554 97.984h83.242v23.148c1.386 0 1.386 69.943 47.932 69.943h93.091c46.545 0 46.545-69.943 46.545-69.943v-23.148zM134.465 783.919c0 0-41.374 1.355-41.374-43.807v-657.108c0-43.807 41.374-43.807 41.374-43.807h289.616c0 0 41.374 0 41.374 43.807v657.108c0 43.807-41.374 43.807-41.374 43.807h-289.616z" horiz-adv-x="559" />
<glyph unicode="&#xe679;" d="M456.992 877.014v0c0 0 101.554 0 101.554-97.984v-734.934c0-97.99-101.554-97.99-101.554-97.99h-355.438c0 0-101.554 0.801-101.554 97.99v734.934c0 97.984 101.554 97.984 101.554 97.984h355.438zM460.283 830.464h-362.020c0 0-51.717 1.525-51.717-49.283v-739.247c0-49.283 51.717-49.283 51.717-49.283h362.020c0 0 51.717 0 51.717 49.283v739.247c0 49.283-51.717 49.283-51.717 49.283v0zM184.795 900.162h187.568c0 0 0 69.943-46.545 69.943h-93.091c-46.545 0-46.545-69.943-47.932-69.943z" horiz-adv-x="559" />
<glyph unicode="&#xe67a;" d="M372.364 877.014h84.628c0 0 101.554 0 101.554-97.984v-734.934c0-97.99-101.554-97.99-101.554-97.99h-355.438c0 0-101.554 0.801-101.554 97.99v734.934c0 97.984 101.554 97.984 101.554 97.984h83.242v23.148c1.386 0 1.386 69.943 47.932 69.943h93.091c46.545 0 46.545-69.943 46.545-69.943v-23.148zM134.465 783.919c0 0-41.374 1.355-41.374-43.807v-657.108c0-43.807 41.374-43.807 41.374-43.807h289.616c0 0 41.374 0 41.374 43.807v657.108c0 43.807-41.374 43.807-41.374 43.807h-289.616zM139.636 737.378v-651.636h279.273v651.636h-279.273z" horiz-adv-x="559" />
<glyph unicode="&#xe67b;" d="M456.992 877.014v0c0 0 101.554 0 101.554-97.984v-734.934c0-97.99-101.554-97.99-101.554-97.99h-355.438c0 0-101.554 0.801-101.554 97.99v734.934c0 97.984 101.554 97.984 101.554 97.984h355.438zM460.283 830.464h-362.020c0 0-51.717 1.525-51.717-49.283v-739.247c0-49.283 51.717-49.283 51.717-49.283h362.020c0 0 51.717 0 51.717 49.283v739.247c0 49.283-51.717 49.283-51.717 49.283v0zM184.795 900.162h187.568c0 0 0 69.943-46.545 69.943h-93.091c-46.545 0-46.545-69.943-47.932-69.943zM93.091 85.741v-46.545h372.364v46.545h-372.364zM93.091 178.832v-46.545h372.364v46.545h-372.364zM93.091 271.923v-46.545h372.364v46.545h-372.364zM93.091 365.014v-46.545h372.364v46.545h-372.364zM93.091 458.105v-46.545h372.364v46.545h-372.364zM93.091 551.196v-46.545h372.364v46.545h-372.364zM93.091 644.287v-46.545h372.364v46.545h-372.364zM93.091 737.378v-46.545h372.364v46.545h-372.364z" horiz-adv-x="559" />
<glyph unicode="&#xe67c;" d="M372.364 877.014h84.628c0 0 101.554 0 101.554-97.984v-734.934c0-97.99-101.554-97.99-101.554-97.99h-355.438c0 0-101.554 0.801-101.554 97.99v734.934c0 97.984 101.554 97.984 101.554 97.984h83.242v23.148c1.386 0 1.386 69.943 47.932 69.943h93.091c46.545 0 46.545-69.943 46.545-69.943v-23.148zM134.465 783.919c0 0-41.374 1.355-41.374-43.807v-657.108c0-43.807 41.374-43.807 41.374-43.807h289.616c0 0 41.374 0 41.374 43.807v657.108c0 43.807-41.374 43.807-41.374 43.807h-289.616zM139.636 411.56v-325.818h279.273v325.818h-279.273z" horiz-adv-x="559" />
<glyph unicode="&#xe67d;" d="M456.992 877.014v0c0 0 101.554 0 101.554-97.984v-734.934c0-97.99-101.554-97.99-101.554-97.99h-355.438c0 0-101.554 0.801-101.554 97.99v734.934c0 97.984 101.554 97.984 101.554 97.984h355.438zM460.283 830.464h-362.020c0 0-51.717 1.525-51.717-49.283v-739.247c0-49.283 51.717-49.283 51.717-49.283h362.020c0 0 51.717 0 51.717 49.283v739.247c0 49.283-51.717 49.283-51.717 49.283v0zM184.795 900.162h187.568c0 0 0 69.943-46.545 69.943h-93.091c-46.545 0-46.545-69.943-47.932-69.943zM93.091 85.741v-46.545h372.364v46.545h-372.364zM93.091 178.832v-46.545h372.364v46.545h-372.364zM93.091 271.923v-46.545h372.364v46.545h-372.364zM93.091 365.014v-46.545h372.364v46.545h-372.364z" horiz-adv-x="559" />
<glyph unicode="&#xe67e;" d="M420.348 85.741h-18.595l-97.905-139.33h-46.977l97.905 139.33h-331.503c0 0-23.273-4.148-23.273 21.199s23.273 25.347 23.273 25.347h744.727c0 0 23.273 0 23.273-25.347s-23.273-21.199-23.273-21.199h-300.674l97.834-139.33h-46.977l-97.834 139.33zM93.091 830.469h605.091c0 0 93.091 0 93.091-93.091v-465.455c0-93.091-93.091-93.091-93.091-93.091h-605.091c0 0-93.091 0-93.091 93.091v465.455c0 93.091 93.091 93.091 93.091 93.091zM418.909 923.56l2.418 46.545h-48.963v-46.545h-46.545v-46.545h139.636v46.545h-46.545zM465.455 365.014v-46.545h232.727v46.545h-232.727zM93.091 737.378v-93.091h605.091v93.091h-605.091zM465.455 504.65v-46.545h232.727v46.545h-232.727zM232.727 271.923c77.119 0 139.636 62.517 139.636 139.636h-139.636v139.636c-77.119 0-139.636-62.517-139.636-139.636s62.517-139.636 139.636-139.636z" horiz-adv-x="791" />
<glyph unicode="&#xe67f;" d="M420.348 85.741h-18.595l-97.905-139.33h-46.977l97.905 139.33h-331.503c0 0-23.273-4.148-23.273 21.199s23.273 25.347 23.273 25.347h744.727c0 0 23.273 0 23.273-25.347s-23.273-21.199-23.273-21.199h-300.674l97.834-139.33h-46.977l-97.834 139.33zM93.091 830.469h605.091c0 0 93.091 0 93.091-93.091v-465.455c0-93.091-93.091-93.091-93.091-93.091h-605.091c0 0-93.091 0-93.091 93.091v465.455c0 93.091 93.091 93.091 93.091 93.091zM93.091 783.923c0 0-46.545 0-46.545-46.545v-465.455c0-46.545 46.545-46.545 46.545-46.545h605.091c0 0 46.545 0 46.545 46.545v465.455c0 46.545-46.545 46.545-46.545 46.545h-605.091zM418.909 923.56l2.418 46.545h-48.963v-46.545h-46.545v-46.545h139.636v46.545h-46.545zM465.455 365.014v-46.545h232.727v46.545h-232.727zM93.091 737.378v-93.091h605.091v93.091h-605.091zM465.455 504.65v-46.545h232.727v46.545h-232.727zM232.727 271.923c77.119 0 139.636 62.517 139.636 139.636h-139.636v139.636c-77.119 0-139.636-62.517-139.636-139.636s62.517-139.636 139.636-139.636z" horiz-adv-x="791" />
<glyph unicode="&#xe680;" d="M420.348 85.741h-18.595l-97.905-139.33h-46.977l97.905 139.33h-331.503c0 0-23.273-4.148-23.273 21.199s23.273 25.347 23.273 25.347h744.727c0 0 23.273 0 23.273-25.347s-23.273-21.199-23.273-21.199h-300.674l97.834-139.33h-46.977l-97.834 139.33zM93.091 830.469h605.091c0 0 93.091 0 93.091-93.091v-465.455c0-93.091-93.091-93.091-93.091-93.091h-605.091c0 0-93.091 0-93.091 93.091v465.455c0 93.091 93.091 93.091 93.091 93.091zM418.909 923.56l2.418 46.545h-48.963v-46.545h-46.545v-46.545h139.636v46.545h-46.545zM93.091 365.014v-46.545h605.091v46.545h-605.091zM93.091 737.378v-93.091h605.091v93.091h-605.091zM93.091 504.65v-46.545h605.091v46.545h-605.091z" horiz-adv-x="791" />
<glyph unicode="&#xe681;" d="M420.348 85.741h-18.595l-97.905-139.33h-46.977l97.905 139.33h-331.503c0 0-23.273-4.148-23.273 21.199s23.273 25.347 23.273 25.347h744.727c0 0 23.273 0 23.273-25.347s-23.273-21.199-23.273-21.199h-300.674l97.834-139.33h-46.977l-97.834 139.33zM93.091 830.469h605.091c0 0 93.091 0 93.091-93.091v-465.455c0-93.091-93.091-93.091-93.091-93.091h-605.091c0 0-93.091 0-93.091 93.091v465.455c0 93.091 93.091 93.091 93.091 93.091zM93.091 783.923c0 0-46.545 0-46.545-46.545v-465.455c0-46.545 46.545-46.545 46.545-46.545h605.091c0 0 46.545 0 46.545 46.545v465.455c0 46.545-46.545 46.545-46.545 46.545h-605.091zM418.909 923.56l2.418 46.545h-48.963v-46.545h-46.545v-46.545h139.636v46.545h-46.545zM93.091 365.014v-46.545h605.091v46.545h-605.091zM93.091 737.378v-93.091h605.091v93.091h-605.091zM93.091 504.65v-46.545h605.091v46.545h-605.091z" horiz-adv-x="791" />
</font>
</defs>
</svg>
